<?xml version="1.0" standalone="no"?>
<!DOCTYPE svg PUBLIC "-//W3C//DTD SVG 1.1//EN" "http://www.w3.org/Graphics/SVG/1.1/DTD/svg11.dtd" >
<svg xmlns="http://www.w3.org/2000/svg" xmlns:xlink="http://www.w3.org/1999/xlink" version="1.1">
<metadata>
Created by FontForge 20201107 at Wed Nov 23 10:58:01 2022
 By Unknown
Copyright 2011 Google Inc. All Rights Reserved.
</metadata>
<defs>
<font id="Roboto-BlackItalic" horiz-adv-x="1126" >
  <font-face 
    font-family="Roboto Black"
    font-weight="900"
    font-style="italic"
    font-stretch="normal"
    units-per-em="2048"
    panose-1="2 0 10 3 0 0 0 0 0 0"
    ascent="1536"
    descent="-512"
    x-height="1082"
    cap-height="1456"
    bbox="-1447 -555 2509 2163"
    underline-thickness="100"
    underline-position="-200"
    slope="-12"
    unicode-range="U+0002-FFFD"
  />
<missing-glyph horiz-adv-x="918" 
d="M808 0h-708v1456h708v-1456zM754 84v1287l-274 -643zM154 1359v-1263l268 632zM194 54h515l-258 606zM451 796l258 606h-515z" />
    <glyph glyph-name=".notdef" horiz-adv-x="918" 
d="M808 0h-708v1456h708v-1456zM754 84v1287l-274 -643zM154 1359v-1263l268 632zM194 54h515l-258 606zM451 796l258 606h-515z" />
    <glyph glyph-name="glyph1" horiz-adv-x="0" 
 />
    <glyph glyph-name="uni0002" horiz-adv-x="0" 
 />
    <glyph glyph-name="uni000D" unicode="&#xd;" horiz-adv-x="505" 
 />
    <glyph glyph-name="space" unicode=" " horiz-adv-x="505" 
 />
    <glyph glyph-name="exclam" unicode="!" horiz-adv-x="558" 
d="M395 461h-267l131 995h350zM23 145c-1 49 16 90 51 125c35 34 79 51 131 51c51 0 94 -16 128 -47s52 -70 53 -117c1 -50 -16 -92 -51 -125c-35 -34 -79 -51 -131 -51c-50 0 -92 15 -127 47c-35 30 -53 70 -54 117z" />
    <glyph glyph-name="quotedbl" unicode="&#x22;" horiz-adv-x="640" 
d="M371 1382l-105 -413h-185l89 568h225zM711 1382l-105 -413h-183l89 568h224z" />
    <glyph glyph-name="numbersign" unicode="#" horiz-adv-x="1164" 
d="M557 410h-148l-137 -410h-201l137 410h-213l32 183h241l89 264h-212l33 183h240l139 416h200l-139 -416h149l139 416h201l-139 -416h221l-32 -183h-249l-89 -264h219l-32 -183h-248l-136 -410h-201zM469 593h148l90 264h-149z" />
    <glyph glyph-name="dollar" unicode="$" horiz-adv-x="1160" 
d="M710 394c6 46 0 84 -19 116c-19 30 -54 59 -106 84c-52 26 -101 53 -149 80c-46 27 -88 59 -122 94c-36 36 -63 78 -82 124c-20 48 -28 104 -24 169c7 117 53 211 136 285c84 72 192 115 325 127l40 212h157l-42 -218c103 -20 182 -71 239 -153c57 -81 84 -184 81 -309
l-330 1c3 77 -6 132 -26 166c-21 32 -51 49 -92 50c-45 0 -82 -16 -111 -47s-47 -70 -52 -116c-5 -42 2 -78 21 -109c20 -30 55 -58 106 -84s99 -53 146 -82c47 -28 88 -60 122 -96c36 -36 63 -78 82 -125c20 -47 28 -103 24 -168c-7 -116 -50 -210 -130 -283
c-78 -72 -184 -115 -317 -128l-39 -202h-156l40 204c-121 16 -214 66 -280 151c-67 85 -98 195 -94 331l328 -1c-3 -75 8 -133 34 -173c27 -39 67 -59 120 -59c44 0 82 14 112 43c32 28 51 67 58 116z" />
    <glyph glyph-name="percent" unicode="%" horiz-adv-x="1484" 
d="M529 1477c90 -1 162 -29 215 -84s77 -127 72 -217l-5 -67c-7 -95 -42 -170 -105 -227c-63 -56 -142 -83 -238 -82c-89 1 -160 30 -214 84c-54 56 -79 127 -75 215l6 75c8 91 44 165 107 221s142 83 237 82zM391 1097c-3 -35 2 -63 17 -85c14 -20 35 -31 63 -31
c30 -1 57 9 79 30c24 21 38 51 45 88l11 78c7 77 -20 116 -79 119c-30 1 -57 -9 -81 -32s-39 -52 -45 -88zM1058 658c90 -1 162 -30 216 -84c54 -56 78 -128 73 -217l-6 -77c-9 -94 -46 -168 -109 -223c-64 -55 -142 -81 -234 -78c-87 1 -158 29 -213 83
c-55 55 -80 127 -76 218l6 78c5 60 23 113 55 160c30 46 71 81 120 105c50 24 106 36 168 35zM920 276c-1 -32 5 -59 19 -80c14 -22 35 -34 62 -35c72 -3 114 41 127 132l9 66c3 34 -2 62 -15 83s-35 33 -65 34c-31 1 -59 -10 -83 -34c-24 -23 -39 -52 -44 -85zM396 111
l-154 87l878 1125l153 -86z" />
    <glyph glyph-name="ampersand" unicode="&#x26;" horiz-adv-x="1349" 
d="M329 770l-27 64c-37 91 -53 172 -48 243c5 77 28 146 68 208c39 62 92 110 158 144s138 50 215 48c65 -2 125 -18 177 -48c54 -30 94 -71 122 -123c29 -53 41 -110 38 -171c-7 -130 -88 -244 -241 -342l-94 -60l168 -247c53 79 84 160 95 243h274
c-13 -192 -79 -351 -199 -478l171 -251h-348l-50 75c-121 -66 -244 -98 -369 -95c-83 2 -158 20 -225 55c-66 35 -116 82 -149 143c-33 60 -48 129 -43 206c9 152 112 281 307 386zM474 240c44 -2 103 12 177 42l-194 296l-13 -7c-49 -57 -77 -113 -84 -166
c-6 -47 2 -85 24 -117c21 -30 51 -47 90 -48zM531 1082c-6 -44 8 -98 42 -163l69 40c70 43 108 94 115 152c3 28 -2 53 -17 74c-14 21 -36 32 -66 33c-34 1 -65 -11 -92 -38c-28 -26 -45 -59 -51 -98z" />
    <glyph glyph-name="quotesingle" unicode="'" horiz-adv-x="317" 
d="M394 1358l-93 -397h-204l90 575h235z" />
    <glyph glyph-name="parenleft" unicode="(" horiz-adv-x="711" 
d="M749 1608l51 -170c-129 -96 -229 -229 -302 -399s-120 -393 -142 -668l-5 -98c-10 -273 49 -458 176 -557l-72 -166c-81 41 -149 101 -204 180c-55 80 -95 177 -120 292s-35 234 -31 358c6 185 37 364 92 537s130 320 225 439s205 203 332 252z" />
    <glyph glyph-name="parenright" unicode=")" horiz-adv-x="709" 
d="M603 569c-21 -160 -63 -312 -125 -455c-63 -144 -139 -264 -230 -360c-90 -97 -190 -165 -299 -206l-51 170c129 99 230 233 302 403c74 170 121 392 142 665l6 98c7 274 -52 459 -177 556l73 166c116 -57 206 -151 270 -284c64 -132 99 -292 104 -481l1 -63
c-1 -64 -6 -124 -13 -181z" />
    <glyph glyph-name="asterisk" unicode="*" horiz-adv-x="933" 
d="M398 963l-299 89l91 179l295 -134l38 359h209l-86 -350l314 123l31 -201l-338 -90l170 -271l-175 -109l-127 295l-226 -280l-161 123z" />
    <glyph glyph-name="plus" unicode="+" horiz-adv-x="1071" 
d="M721 826h331l-50 -289h-330l-69 -391h-307l68 391h-332l50 289h332l66 380h307z" />
    <glyph glyph-name="comma" unicode="," horiz-adv-x="545" 
d="M52 -391l-165 79l92 163c35 63 56 120 65 170l41 233h264l-35 -208c-30 -178 -117 -324 -262 -437z" />
    <glyph glyph-name="hyphen" unicode="-" horiz-adv-x="903" 
d="M714 497h-585l45 261h585z" />
    <glyph glyph-name="period" unicode="." horiz-adv-x="610" 
d="M38 152c-1 51 16 93 52 126s79 50 129 50c49 0 91 -15 126 -46c35 -30 53 -69 54 -118c1 -50 -16 -92 -51 -126c-35 -33 -79 -50 -130 -50s-93 15 -127 46s-52 70 -53 118z" />
    <glyph glyph-name="slash" unicode="/" horiz-adv-x="707" 
d="M85 -125h-245l756 1581h246z" />
    <glyph glyph-name="zero" unicode="0" horiz-adv-x="1160" 
d="M491 -20c-83 2 -155 22 -217 58c-61 38 -109 92 -142 164c-33 71 -51 153 -54 244c-2 49 0 99 6 149l38 254c31 205 96 361 197 469c101 109 229 161 385 158c127 -3 226 -45 298 -128c71 -83 110 -195 115 -338c1 -49 -1 -99 -7 -149l-40 -259
c-32 -207 -98 -364 -198 -469c-101 -105 -228 -156 -381 -153zM788 906c6 47 9 88 10 123c0 122 -39 185 -116 189c-119 6 -192 -96 -221 -305l-53 -360c-7 -55 -10 -96 -10 -123c-3 -123 35 -187 115 -192c121 -6 195 98 223 313z" />
    <glyph glyph-name="one" unicode="1" horiz-adv-x="1160" 
d="M708 0h-330l186 1070l-339 -96l46 267l644 215l37 1z" />
    <glyph glyph-name="two" unicode="2" horiz-adv-x="1160" 
d="M979 0h-987l36 232l518 481l71 71c111 112 162 218 153 317c-7 77 -47 117 -120 119c-51 1 -95 -20 -130 -62c-36 -44 -58 -100 -67 -169l-327 -2c5 91 33 175 83 251c50 75 117 134 201 177c83 43 172 64 267 63c142 -3 252 -41 330 -116c78 -74 112 -174 102 -301
c-6 -75 -31 -147 -73 -218c-44 -71 -106 -145 -188 -223l-152 -140l-226 -218l550 -2z" />
    <glyph glyph-name="three" unicode="3" horiz-adv-x="1160" 
d="M426 869l147 -1c60 1 109 19 148 52c39 34 62 81 69 142c5 45 -4 83 -27 112s-58 44 -105 45c-43 1 -82 -11 -115 -36s-55 -59 -64 -101l-330 -2c4 79 29 148 76 209s109 107 187 141c77 32 161 49 250 48c147 -3 262 -42 346 -116c84 -73 122 -171 115 -294
c-9 -137 -98 -246 -269 -326c65 -32 113 -76 145 -133s46 -121 43 -192c-5 -89 -33 -167 -85 -233c-52 -67 -122 -118 -209 -154c-87 -35 -181 -52 -281 -50c-87 1 -167 19 -237 56c-72 36 -126 86 -164 150s-57 137 -56 220h328c1 -47 15 -86 42 -117s66 -47 115 -48
c55 -1 104 15 147 49s68 79 76 134c8 59 -1 106 -26 140c-26 33 -69 51 -129 53l-176 1z" />
    <glyph glyph-name="four" unicode="4" horiz-adv-x="1160" 
d="M946 569h143l-45 -260h-143l-54 -309h-329l54 309h-545l18 222l715 922v7l340 -5zM369 571l248 -2l88 452z" />
    <glyph glyph-name="five" unicode="5" horiz-adv-x="1160" 
d="M121 716l202 740h830l-42 -262h-557l-89 -291c54 35 121 53 201 54c128 0 226 -44 296 -133c68 -89 97 -205 85 -348c-12 -148 -70 -268 -173 -362c-103 -92 -228 -138 -375 -135c-86 2 -164 22 -235 60c-70 38 -124 90 -163 155c-39 66 -58 140 -57 221h328
c1 -52 14 -94 39 -125s59 -48 104 -49c55 -2 100 19 136 61c36 44 59 109 69 197c7 74 -3 130 -30 169c-27 38 -68 57 -125 57c-73 0 -132 -25 -177 -74z" />
    <glyph glyph-name="six" unicode="6" horiz-adv-x="1160" 
d="M1011 1478l-26 -266h-30c-113 -1 -213 -31 -299 -90c-85 -59 -153 -143 -204 -254c82 78 178 116 287 113c78 -1 144 -23 198 -67c54 -42 94 -102 119 -178c26 -75 35 -158 28 -247c-7 -90 -35 -173 -82 -250s-110 -138 -187 -184c-89 -53 -184 -78 -285 -76
c-99 1 -185 28 -257 80s-125 123 -158 213c-33 89 -44 187 -33 294l15 123c19 147 69 281 147 403c80 120 181 215 304 282c124 68 258 103 402 104h61zM612 725c-75 3 -139 -33 -193 -107c-13 -93 -19 -157 -19 -192c0 -59 12 -104 36 -136c24 -33 59 -49 104 -50
c67 -1 121 32 162 100c42 69 59 145 51 229c-5 47 -19 84 -44 113c-25 28 -57 42 -97 43z" />
    <glyph glyph-name="seven" unicode="7" horiz-adv-x="1160" 
d="M1172 1261l-718 -1261h-360l715 1196h-667l42 260h1019z" />
    <glyph glyph-name="eight" unicode="8" horiz-adv-x="1160" 
d="M1126 1075c-9 -141 -92 -252 -247 -331c56 -40 98 -89 125 -146s39 -120 34 -189c-9 -134 -64 -240 -164 -317c-102 -77 -227 -115 -376 -112c-65 1 -127 11 -185 30s-108 48 -149 87c-83 76 -120 175 -111 296c9 158 104 279 285 363c-99 77 -145 177 -138 302
c5 85 30 159 75 223s106 113 183 147c76 35 160 51 252 49c133 -3 238 -41 314 -115c77 -74 111 -170 102 -287zM714 436c6 52 -2 95 -24 128c-23 33 -57 51 -102 52c-51 1 -96 -16 -133 -54c-37 -36 -60 -84 -67 -142c-6 -55 3 -98 26 -130c24 -33 59 -50 104 -51
c49 -1 92 16 129 52s59 84 67 145zM794 1057c5 49 -2 89 -21 117c-19 30 -48 44 -85 44c-43 1 -80 -14 -110 -47c-29 -33 -47 -76 -54 -130c-5 -49 2 -89 21 -121c19 -30 48 -46 86 -46c42 -1 78 15 108 48s48 78 55 135z" />
    <glyph glyph-name="nine" unicode="9" horiz-adv-x="1160" 
d="M739 564c-76 -66 -157 -99 -243 -99c-80 1 -148 22 -206 64c-56 42 -99 101 -126 176s-37 157 -29 245c8 95 38 184 91 268c53 82 120 147 202 193c81 46 168 68 261 66c123 -3 221 -46 295 -129s116 -191 127 -324c3 -48 3 -96 -2 -143l-14 -108
c-31 -243 -125 -437 -283 -579c-156 -144 -351 -215 -584 -215h-21l27 271h46c223 5 376 109 459 314zM598 707c64 -1 121 30 170 95l20 142l5 83c0 60 -11 107 -32 140s-53 50 -95 51c-60 1 -110 -34 -150 -104c-40 -72 -57 -153 -51 -244c3 -49 15 -89 39 -118
c22 -29 54 -44 94 -45z" />
    <glyph glyph-name="colon" unicode=":" horiz-adv-x="607" 
d="M39 152c-1 51 16 93 52 126s79 50 129 50c49 0 91 -15 126 -46c35 -30 53 -69 54 -118c1 -50 -16 -92 -51 -126c-35 -33 -79 -50 -130 -50s-93 15 -127 46s-52 70 -53 118zM177 950c-1 51 16 93 52 126s79 50 129 50c49 0 91 -15 126 -46c35 -30 53 -69 54 -118
c1 -50 -16 -92 -51 -126c-35 -33 -79 -50 -130 -50s-93 15 -127 46s-52 70 -53 118z" />
    <glyph glyph-name="semicolon" unicode=";" horiz-adv-x="582" 
d="M166 950c-1 51 16 93 52 126s79 50 129 50c49 0 91 -15 126 -46c35 -30 53 -69 54 -118c1 -50 -16 -92 -51 -126c-35 -33 -79 -50 -130 -50s-93 15 -127 46s-52 70 -53 118zM76 -391l-165 79l92 163c35 63 56 120 65 170l41 233h264l-35 -208
c-30 -178 -117 -324 -262 -437z" />
    <glyph glyph-name="less" unicode="&#x3c;" horiz-adv-x="1023" 
d="M373 603l499 -184l-51 -295l-797 361l46 266l923 360l-56 -319z" />
    <glyph glyph-name="equal" unicode="=" horiz-adv-x="1173" 
d="M1045 722h-901l46 260h900zM969 283h-901l46 260h900z" />
    <glyph glyph-name="greater" unicode="&#x3e;" horiz-adv-x="1029" 
d="M638 618l-496 185l51 293l792 -360l-46 -266l-918 -360l56 319z" />
    <glyph glyph-name="question" unicode="?" horiz-adv-x="1022" 
d="M321 459c8 159 59 279 153 362l83 66c45 37 79 74 103 111c22 37 33 81 31 131c-2 59 -33 89 -93 91c-39 1 -71 -13 -98 -42c-26 -29 -44 -71 -55 -124l-329 -2c10 133 61 238 153 314c92 77 209 114 351 111c86 -2 161 -19 226 -51c64 -32 112 -77 143 -135
s44 -126 39 -203c-8 -113 -71 -217 -190 -314l-117 -93c-69 -58 -110 -131 -125 -220zM217 150c-1 51 16 94 52 127s79 50 130 50s94 -16 128 -47s52 -70 53 -117c1 -51 -16 -93 -52 -127c-35 -32 -79 -49 -130 -49c-49 0 -92 15 -126 45c-36 29 -54 69 -55 118z" />
    <glyph glyph-name="at" unicode="@" horiz-adv-x="1789" 
d="M1184 -21c-53 1 -98 14 -138 38c-38 24 -66 57 -81 98c-80 -91 -170 -135 -269 -132c-74 2 -132 30 -175 85s-65 127 -68 216c-5 113 19 228 71 344c53 115 121 205 204 269s176 95 277 94c52 -1 101 -10 147 -27c47 -17 98 -44 155 -82l-139 -600l-4 -38
c-5 -59 19 -90 70 -92c104 -5 183 85 237 269c29 99 44 198 47 299c4 162 -33 288 -112 378c-78 91 -194 137 -347 140c-106 2 -207 -20 -304 -68c-97 -46 -183 -116 -261 -209c-76 -93 -138 -200 -183 -321c-45 -122 -70 -244 -74 -367c-4 -109 11 -204 47 -285
c34 -81 88 -143 159 -186c71 -42 159 -63 262 -64c104 -1 216 20 336 65l29 -170c-86 -57 -208 -86 -366 -86c-137 1 -257 28 -358 81s-180 130 -235 232s-85 220 -88 353c-4 151 20 302 73 451c52 150 127 282 226 398c98 114 211 202 338 262c127 59 260 88 398 86
c174 -2 318 -50 431 -142c113 -94 184 -222 213 -385c23 -140 15 -285 -26 -435c-40 -151 -103 -267 -188 -350c-86 -82 -187 -122 -304 -119zM713 428c-12 -55 -17 -106 -14 -154c1 -31 9 -56 23 -75s34 -29 59 -30c33 -2 66 13 99 45s59 72 76 120l120 461
c-22 5 -40 7 -53 7c-76 3 -140 -27 -193 -88s-92 -157 -117 -286z" />
    <glyph glyph-name="A" unicode="A" horiz-adv-x="1363" 
d="M857 272h-465l-129 -272h-377l771 1456h322l269 -1456h-356zM520 543h302l-64 502z" />
    <glyph glyph-name="B" unicode="B" horiz-adv-x="1291" 
d="M2 0l252 1456l463 -1c183 -1 319 -35 409 -104s131 -165 123 -289c-10 -153 -94 -262 -252 -326c57 -20 101 -56 133 -108c31 -53 45 -116 40 -189c-9 -141 -65 -249 -166 -325c-102 -76 -241 -114 -418 -114h-584zM452 619l-61 -349l205 -1c64 0 117 16 160 47
c43 32 68 74 76 127c19 111 -24 170 -128 175zM491 849l161 -1c149 3 232 60 250 171c16 109 -41 164 -170 165l-182 1z" />
    <glyph glyph-name="C" unicode="C" horiz-adv-x="1314" 
d="M1222 496c-9 -102 -42 -193 -100 -272c-59 -79 -136 -140 -230 -183c-96 -43 -198 -63 -309 -61c-152 3 -272 52 -359 147s-135 223 -143 385c-6 108 6 226 35 353c30 127 78 238 146 333c66 94 146 164 236 212c92 46 191 69 299 67c159 -3 284 -50 377 -143
c92 -93 142 -220 150 -383l-341 1c1 89 -15 152 -48 190s-86 58 -158 61c-180 6 -290 -134 -329 -420c-18 -129 -27 -222 -27 -277c-3 -164 57 -248 182 -253c81 -3 145 17 193 59c48 43 79 103 92 180z" />
    <glyph glyph-name="D" unicode="D" horiz-adv-x="1294" 
d="M2 0l252 1456l428 -1c126 0 236 -33 330 -99c94 -67 161 -157 200 -272c34 -101 44 -209 31 -326l-7 -61c-18 -131 -61 -249 -130 -355s-157 -189 -265 -250c-108 -60 -225 -91 -350 -92h-489zM550 1185l-159 -915l100 -1c117 0 211 45 283 136c70 91 113 229 126 416
l2 33c5 107 -12 188 -50 243s-95 84 -171 87z" />
    <glyph glyph-name="E" unicode="E" horiz-adv-x="1122" 
d="M987 617h-535l-61 -347h633l-47 -270h-975l252 1456h977l-47 -271h-634l-54 -307h536z" />
    <glyph glyph-name="F" unicode="F" horiz-adv-x="1096" 
d="M994 580h-549l-101 -580h-342l252 1456h947l-47 -271h-604l-58 -335h549z" />
    <glyph glyph-name="G" unicode="G" horiz-adv-x="1364" 
d="M1209 179c-55 -64 -134 -113 -239 -149c-105 -34 -221 -51 -348 -49c-122 1 -225 32 -309 92s-144 144 -180 251s-46 228 -29 363l8 60c31 226 110 405 238 537c129 132 286 196 472 193c163 -3 288 -46 375 -131s136 -207 146 -367l-328 1c-5 78 -24 135 -57 171
c-34 36 -82 55 -144 57c-92 3 -168 -33 -228 -108c-60 -76 -101 -184 -123 -325c-19 -120 -25 -213 -20 -280c10 -161 82 -242 217 -244c81 -1 153 18 214 59l45 227h-237l42 241h579z" />
    <glyph glyph-name="H" unicode="H" horiz-adv-x="1406" 
d="M1184 0h-340l105 608h-499l-106 -608h-342l252 1456h343l-101 -578h500l100 578h341z" />
    <glyph glyph-name="I" unicode="I" horiz-adv-x="609" 
d="M367 0h-342l253 1456h341z" />
    <glyph glyph-name="J" unicode="J" 
d="M820 1456h342l-170 -999c-21 -146 -83 -263 -186 -351c-104 -87 -226 -130 -366 -127c-141 3 -250 44 -326 124c-78 80 -114 193 -110 338l345 -1v-69c3 -79 41 -120 115 -122c100 -2 163 71 188 219z" />
    <glyph glyph-name="K" unicode="K" horiz-adv-x="1281" 
d="M587 538l-178 -167l-65 -371h-342l252 1456h343l-109 -623l142 173l378 450h444l-604 -659l335 -797h-391z" />
    <glyph glyph-name="L" unicode="L" horiz-adv-x="1087" 
d="M391 270h593l-47 -270h-935l252 1456h343z" />
    <glyph glyph-name="M" unicode="M" horiz-adv-x="1751" 
d="M698 1456l139 -1010l488 1010h456l-252 -1456h-344l62 357l148 658l-510 -1015h-227l-165 1053l-92 -730l-57 -323h-342l252 1456h444z" />
    <glyph glyph-name="N" unicode="N" horiz-adv-x="1405" 
d="M1183 0h-331l-348 919l-160 -919h-342l252 1456h334l347 -919l159 919h342z" />
    <glyph glyph-name="O" unicode="O" horiz-adv-x="1382" 
d="M603 -20c-151 3 -273 53 -364 150s-143 226 -155 388c-7 80 0 174 19 282c19 109 54 209 103 300s111 167 185 228c124 102 267 151 428 148c99 -2 186 -25 261 -68c74 -44 133 -107 178 -189s71 -175 78 -280c5 -74 1 -158 -14 -253c-14 -94 -40 -184 -78 -270
c-39 -85 -88 -161 -149 -226s-132 -117 -215 -156c-82 -38 -174 -56 -277 -54zM993 942c-7 167 -71 253 -194 260c-95 5 -173 -33 -235 -112c-62 -80 -103 -198 -123 -353c-13 -96 -17 -170 -14 -223c7 -169 72 -256 196 -261c81 -4 151 25 210 87c59 63 101 154 127 272
c26 120 37 229 33 330z" />
    <glyph glyph-name="P" unicode="P" horiz-adv-x="1303" 
d="M430 494l-86 -494h-342l252 1456l523 -1c162 0 289 -45 383 -135c92 -90 133 -207 122 -350c-8 -98 -39 -183 -94 -255s-127 -127 -216 -165c-90 -38 -191 -57 -302 -57zM477 765l206 -2c87 2 153 30 199 85c46 54 64 121 55 200c-5 41 -21 73 -47 96
c-25 24 -59 37 -101 40l-239 1z" />
    <glyph glyph-name="Q" unicode="Q" horiz-adv-x="1382" 
d="M1326 699c-19 -139 -59 -258 -120 -359c-60 -100 -137 -180 -230 -241l195 -193l-227 -172l-258 251c-37 -3 -65 -5 -84 -4c-98 1 -185 23 -260 67c-76 44 -136 107 -180 190s-70 177 -77 284c-5 78 0 167 17 266c17 100 46 193 89 280c64 130 151 231 260 304
c109 72 232 107 369 104c99 -2 185 -25 260 -68c75 -44 134 -108 180 -192c44 -83 71 -177 78 -282c4 -58 2 -117 -5 -177zM995 942c-5 87 -24 152 -57 193c-32 41 -78 64 -138 67c-97 3 -175 -35 -236 -114s-101 -197 -122 -353c-13 -93 -17 -167 -14 -222
c7 -169 72 -255 196 -260c90 -5 166 31 226 105c62 76 103 187 126 334c15 103 22 187 19 250z" />
    <glyph glyph-name="R" unicode="R" horiz-adv-x="1306" 
d="M624 514h-190l-90 -514h-342l252 1456l514 -1c165 0 292 -39 380 -115c90 -78 129 -183 120 -316c-7 -105 -38 -192 -91 -262c-53 -68 -128 -123 -224 -163l196 -582v-17h-365zM480 785l200 -2c55 0 102 13 142 40c41 27 70 63 87 109c17 47 22 92 15 135
c-13 74 -61 113 -142 117l-232 1z" />
    <glyph glyph-name="S" unicode="S" horiz-adv-x="1254" 
d="M802 394c15 75 -26 134 -122 175l-164 68c-230 103 -339 244 -328 422c5 81 33 154 84 217c51 64 122 114 213 149s190 52 297 51c144 -3 260 -45 348 -126c87 -81 130 -190 129 -327h-340c2 56 -10 101 -35 135c-26 33 -68 51 -127 52c-57 1 -108 -12 -152 -40
s-70 -66 -78 -113c-13 -67 37 -121 149 -164c111 -43 192 -79 243 -110c159 -95 234 -224 224 -386c-5 -84 -32 -158 -81 -221s-116 -112 -202 -147c-87 -35 -184 -51 -291 -50c-79 1 -152 14 -219 37s-125 57 -173 102c-97 90 -144 208 -140 355l343 -1
c-4 -75 10 -131 43 -170c33 -38 88 -57 165 -57c57 0 105 13 144 39c38 27 61 63 70 110z" />
    <glyph glyph-name="T" unicode="T" horiz-adv-x="1262" 
d="M1318 1185h-424l-205 -1185h-343l206 1185h-417l48 271h1182z" />
    <glyph glyph-name="U" unicode="U" horiz-adv-x="1330" 
d="M1368 1456l-162 -950c-23 -165 -91 -294 -204 -389c-112 -95 -253 -141 -424 -138c-106 2 -198 25 -276 69c-78 43 -136 105 -172 184c-38 80 -50 171 -38 273l162 951h344l-161 -952c-4 -33 -5 -65 -2 -95c3 -49 19 -88 47 -115c27 -27 66 -42 117 -44
c147 -5 235 80 265 255l162 951h342z" />
    <glyph glyph-name="V" unicode="V" horiz-adv-x="1322" 
d="M619 400l446 1056h392l-704 -1456h-374l-244 1456h370z" />
    <glyph glyph-name="W" unicode="W" horiz-adv-x="1737" 
d="M1189 547l304 909h346l-528 -1456h-354l-59 825l-314 -825h-354l-73 1456h333l20 -905l334 905h291z" />
    <glyph glyph-name="X" unicode="X" horiz-adv-x="1278" 
d="M684 974l306 482h406l-518 -736l285 -720h-379l-160 491l-314 -491h-409l530 748l-276 708h375z" />
    <glyph glyph-name="Y" unicode="Y" horiz-adv-x="1257" 
d="M656 826l368 630h385l-628 -949l-87 -507h-348l94 540l-291 915l356 1z" />
    <glyph glyph-name="Z" unicode="Z" horiz-adv-x="1222" 
d="M437 272l671 -2l-47 -270h-1102l35 200l839 983l-673 2l48 271h1099l-34 -195z" />
    <glyph glyph-name="bracketleft" unicode="[" horiz-adv-x="570" 
d="M682 1460h-114l-244 -1564h115l-39 -245h-444l321 2055h444z" />
    <glyph glyph-name="backslash" unicode="\" horiz-adv-x="857" 
d="M135 1456h329l316 -1581h-331z" />
    <glyph glyph-name="bracketright" unicode="]" horiz-adv-x="570" 
d="M186 1706h444l-321 -2055h-445l39 245h115l244 1564h-115z" />
    <glyph glyph-name="asciicircum" unicode="^" horiz-adv-x="899" 
d="M554 1179l-244 -450h-261l417 727h243l165 -727h-235z" />
    <glyph glyph-name="underscore" unicode="_" horiz-adv-x="887" 
d="M730 -251h-878l44 251h878z" />
    <glyph glyph-name="grave" unicode="`" horiz-adv-x="684" 
d="M681 1222h-247l-229 312l331 2z" />
    <glyph glyph-name="a" unicode="a" horiz-adv-x="1064" 
d="M597 0c-9 26 -14 59 -14 98c-74 -81 -162 -121 -265 -118c-94 1 -172 33 -234 94s-91 136 -87 223c3 117 52 207 147 271c95 62 224 94 388 94l110 -2l12 61l4 53c-3 61 -33 92 -91 94c-72 1 -116 -38 -133 -119l-330 -1c3 73 27 136 71 190c44 53 104 94 179 124
c76 28 157 42 242 40c82 -2 154 -19 216 -52c61 -32 107 -77 138 -134c31 -58 42 -125 35 -200l-81 -509l-5 -62c-3 -49 4 -91 19 -126l-1 -19h-320zM409 218c67 -3 126 27 177 89l33 174l-85 1c-53 -1 -98 -17 -136 -46c-38 -30 -60 -71 -67 -122c-3 -27 2 -50 15 -68
c14 -17 35 -27 63 -28z" />
    <glyph glyph-name="b" unicode="b" horiz-adv-x="1128" 
d="M1055 539c-21 -175 -72 -313 -155 -414s-191 -149 -326 -146c-107 3 -189 47 -246 134l-41 -113h-298l267 1536h329l-107 -543c73 74 154 110 243 109c106 -1 189 -39 248 -114c59 -74 91 -175 94 -303c1 -43 -1 -84 -5 -125zM728 559c5 41 8 79 9 116
c0 107 -38 163 -115 168c-68 3 -125 -26 -171 -87l-78 -432c21 -55 66 -84 136 -85c107 -3 175 67 203 210l14 89z" />
    <glyph glyph-name="c" unicode="c" horiz-adv-x="1042" 
d="M488 239c47 -1 84 12 111 39c27 28 44 64 51 108l308 1c-4 -79 -28 -150 -70 -213c-44 -63 -102 -111 -174 -146c-74 -34 -152 -50 -235 -48c-144 3 -255 54 -333 156c-78 100 -110 231 -95 391l3 24c12 109 43 206 92 291c49 84 114 149 194 195c81 46 171 68 270 65
c126 -3 226 -43 298 -120c74 -78 109 -183 106 -315l-308 1c3 115 -38 173 -123 175c-116 4 -183 -94 -200 -293l-9 -102l-1 -38c0 -112 38 -169 115 -171z" />
    <glyph glyph-name="d" unicode="d" horiz-adv-x="1127" 
d="M41 543c21 171 73 307 156 410s192 152 326 149c92 -3 168 -41 229 -116l105 550h330l-266 -1536h-293l14 117c-81 -95 -170 -141 -269 -138c-104 1 -185 40 -245 115c-58 76 -90 178 -94 305c-1 42 0 83 4 123zM369 521c-5 -43 -8 -80 -7 -112c0 -111 37 -167 112 -169
c65 -2 122 29 173 93l74 415c-22 61 -66 93 -132 95c-61 1 -111 -25 -149 -79c-37 -55 -61 -136 -71 -243z" />
    <glyph glyph-name="e" unicode="e" horiz-adv-x="1092" 
d="M525 -20c-97 1 -183 24 -259 68c-75 46 -132 108 -171 188c-39 81 -54 169 -46 266l3 28c18 178 80 319 186 422c105 104 235 154 388 150c93 -1 172 -25 238 -70c66 -46 114 -109 145 -190c31 -80 41 -170 30 -270l-19 -137h-644c1 -57 17 -103 48 -138s75 -54 134 -56
c95 -3 181 34 257 110l138 -183c-41 -58 -97 -104 -171 -136c-72 -34 -152 -51 -239 -52h-18zM605 843c-47 1 -87 -13 -121 -44c-35 -31 -65 -82 -90 -154h329l6 29c4 23 5 45 2 66c-11 67 -53 101 -126 103z" />
    <glyph glyph-name="f" unicode="f" horiz-adv-x="730" 
d="M59 0l147 848h-152l40 234l152 1l13 95c17 115 63 207 138 275c81 72 186 107 315 106c33 0 88 -7 163 -22l-25 -249c-31 8 -57 12 -78 12c-49 0 -89 -11 -120 -34c-32 -22 -52 -54 -61 -96l-15 -88h205l-40 -234h-205l-147 -848h-330z" />
    <glyph glyph-name="g" unicode="g" horiz-adv-x="1153" 
d="M43 543c13 109 43 207 89 295c48 88 106 154 177 200c71 44 151 66 240 65c109 -3 191 -42 246 -117l35 97l304 -1l-177 -1040c-20 -147 -84 -262 -193 -347s-244 -125 -406 -121c-72 1 -142 16 -209 43s-125 69 -173 124l156 194c58 -73 133 -111 226 -113
c146 -3 239 75 278 233l8 33c-75 -73 -157 -109 -247 -108c-69 1 -130 18 -183 52c-53 35 -94 84 -124 149s-47 137 -51 216c-3 40 -1 89 4 146zM368 436c0 -61 11 -109 33 -143s54 -52 96 -53c62 -3 118 21 169 72l85 459c-27 47 -71 71 -134 72c-64 1 -118 -26 -161 -81
c-43 -56 -71 -129 -82 -220c-4 -42 -6 -77 -6 -106z" />
    <glyph glyph-name="h" unicode="h" horiz-adv-x="1131" 
d="M463 964c81 94 174 140 279 139c109 -3 189 -42 242 -119c52 -77 71 -181 56 -312l-112 -672h-329l113 676c3 23 3 44 2 64c-5 66 -41 100 -110 102c-59 1 -112 -20 -158 -65l-138 -777h-329l267 1536h329z" />
    <glyph glyph-name="i" unicode="i" horiz-adv-x="556" 
d="M334 0h-330l188 1082h330zM221 1355c-1 49 16 89 51 122c36 33 79 49 130 49s94 -15 128 -44c35 -29 53 -68 54 -115c1 -49 -16 -90 -51 -123c-35 -32 -79 -48 -130 -48c-50 0 -93 14 -127 44c-36 28 -54 67 -55 115z" />
    <glyph glyph-name="j" unicode="j" horiz-adv-x="546" 
d="M528 1082l-189 -1116c-16 -129 -65 -229 -146 -300c-81 -72 -185 -107 -310 -106c-50 1 -105 8 -165 19l27 256c37 -8 67 -12 91 -12c97 -1 154 50 172 154l190 1105h330zM223 1355c-1 49 16 90 52 122s79 48 129 48c51 1 93 -13 128 -43c35 -29 53 -68 54 -115
s-15 -87 -50 -120c-34 -33 -78 -50 -131 -51c-51 0 -93 15 -128 44c-35 30 -53 68 -54 115z" />
    <glyph glyph-name="k" unicode="k" horiz-adv-x="1096" 
d="M489 399l-120 -104l-51 -295h-329l267 1537h329l-152 -820l40 48l299 317h417l-460 -460l279 -622h-361z" />
    <glyph glyph-name="l" unicode="l" horiz-adv-x="556" 
d="M334 0h-330l266 1536h330z" />
    <glyph glyph-name="m" unicode="m" horiz-adv-x="1721" 
d="M483 1083l-22 -130c87 102 192 152 316 149c65 -1 119 -17 161 -46s70 -68 84 -117c95 111 205 166 329 163c100 -2 174 -40 223 -112c48 -74 65 -176 52 -309l-113 -681h-330l115 682l4 59c0 66 -31 100 -93 102c-58 0 -112 -30 -162 -89l-131 -754h-330l114 680l4 60
c0 69 -31 103 -93 103c-57 0 -110 -30 -160 -89l-133 -754h-329l188 1082z" />
    <glyph glyph-name="n" unicode="n" horiz-adv-x="1130" 
d="M475 1083l-23 -130c87 103 191 153 313 150c100 -2 175 -39 223 -111c50 -73 67 -176 54 -311l-114 -681h-330l115 683c3 23 3 45 2 64c-5 63 -42 95 -112 95c-58 1 -111 -24 -159 -77l-135 -765h-329l188 1082z" />
    <glyph glyph-name="o" unicode="o" 
d="M618 1102c97 -1 180 -26 251 -72c71 -48 123 -113 155 -197c34 -84 45 -177 36 -280l-2 -22c-19 -166 -80 -300 -185 -402s-234 -152 -388 -149c-96 1 -179 25 -249 72c-70 46 -122 111 -156 194c-33 83 -45 176 -36 278c17 177 78 319 182 424c106 105 236 157 392 154z
M373 524l-3 -59c-9 -149 36 -224 136 -227c129 -4 204 101 225 315l4 91c1 60 -10 108 -33 144c-24 35 -59 54 -105 55c-61 2 -111 -23 -149 -75c-40 -51 -64 -133 -75 -244z" />
    <glyph glyph-name="p" unicode="p" horiz-adv-x="1128" 
d="M1056 540c-14 -113 -44 -214 -89 -302c-45 -89 -101 -154 -169 -198c-66 -42 -141 -63 -224 -61c-95 3 -171 40 -230 112l-98 -507h-329l260 1498l304 1l-17 -103c73 84 158 125 257 122c105 -1 187 -39 247 -113c58 -74 90 -175 94 -303c1 -41 -1 -90 -6 -146zM736 674
c-3 110 -41 166 -112 168c-69 4 -127 -24 -173 -85l-77 -429c21 -58 67 -88 138 -89c117 -2 188 98 215 301c6 64 9 109 9 134z" />
    <glyph glyph-name="q" unicode="q" 
d="M41 546c13 111 42 210 86 298c44 89 99 154 167 197c66 43 143 63 228 61c108 -3 190 -49 246 -138l51 119l289 -1l-260 -1498h-330l101 508c-73 -77 -155 -115 -247 -112c-102 1 -183 40 -242 115s-91 178 -95 307c-1 39 1 87 6 144zM363 442c-5 -59 2 -108 21 -144
c19 -38 49 -57 90 -58c67 -3 125 26 172 87l77 431c-20 55 -64 83 -133 86c-121 2 -194 -97 -219 -298z" />
    <glyph glyph-name="r" unicode="r" horiz-adv-x="763" 
d="M768 777c-35 5 -69 9 -102 10c-99 3 -174 -31 -226 -102l-122 -685h-329l188 1082l307 1l-25 -142c71 109 154 164 250 164c27 0 61 -5 102 -14z" />
    <glyph glyph-name="s" unicode="s" horiz-adv-x="1028" 
d="M597 310c9 44 -25 77 -102 99l-71 18c-116 31 -201 74 -255 129s-79 121 -76 197c3 104 49 189 139 253c88 66 197 97 325 96c127 -1 231 -34 309 -97c80 -63 120 -149 121 -256l-328 1c3 85 -35 128 -113 128c-33 0 -64 -10 -93 -30c-29 -19 -46 -45 -51 -78
c-11 -54 36 -91 143 -111c93 -22 164 -47 215 -77c51 -28 89 -64 116 -107s39 -94 37 -154c-2 -65 -23 -124 -64 -175s-99 -92 -177 -123c-76 -31 -160 -45 -250 -43c-78 1 -150 17 -218 49c-66 32 -119 75 -156 131c-38 54 -58 118 -59 189l306 -2c1 -96 49 -143 144 -142
c41 0 75 9 104 27c29 19 47 45 54 78z" />
    <glyph glyph-name="t" unicode="t" horiz-adv-x="692" 
d="M604 1351l-47 -269h173l-41 -234h-173l-84 -497c-5 -34 -2 -60 6 -77c10 -17 32 -27 68 -28c14 -1 43 1 86 5l-24 -244c-55 -18 -114 -26 -177 -25c-102 1 -178 31 -229 90s-71 138 -62 239l88 537h-134l40 234h134l47 269h329z" />
    <glyph glyph-name="u" unicode="u" horiz-adv-x="1130" 
d="M656 118c-81 -95 -178 -142 -292 -139c-106 1 -186 38 -240 111c-53 73 -74 170 -62 292l117 700h329l-119 -704c-2 -19 -2 -37 0 -53c5 -55 37 -83 97 -85c69 -3 128 25 177 82l134 760h331l-188 -1082h-306z" />
    <glyph glyph-name="v" unicode="v" horiz-adv-x="1036" 
d="M476 405l271 677h355l-512 -1082h-335l-173 1082h338z" />
    <glyph glyph-name="w" unicode="w" horiz-adv-x="1452" 
d="M967 445l217 637h322l-435 -1082h-277l-62 638l-285 -638h-279l-60 1082h309l-10 -644l277 644h229z" />
    <glyph glyph-name="x" unicode="x" horiz-adv-x="1032" 
d="M538 786l199 296h356l-369 -542l198 -540h-328l-114 318l-211 -318h-360l388 570l-189 512h331z" />
    <glyph glyph-name="y" unicode="y" horiz-adv-x="1039" 
d="M484 476l280 606h363l-634 -1244c-47 -98 -102 -169 -163 -212c-62 -44 -136 -66 -221 -66c-38 0 -86 7 -145 22l25 241h38c41 0 76 7 107 19c31 14 56 39 77 76l47 90l-173 1074h340z" />
    <glyph glyph-name="z" unicode="z" horiz-adv-x="1032" 
d="M424 262l474 -2l-45 -260h-894l35 202l569 618l-441 2l45 260h863l-34 -197z" />
    <glyph glyph-name="braceleft" unicode="{" horiz-adv-x="655" 
d="M418 -360c-107 36 -187 94 -238 175c-52 81 -72 178 -60 291l30 221l1 56c-5 73 -45 113 -122 120l23 228c109 5 175 71 196 198l28 203c17 125 60 225 129 301s164 132 284 167l48 -180c-45 -19 -83 -51 -111 -96c-30 -45 -51 -109 -64 -192l-31 -231
c-23 -127 -99 -223 -229 -288c51 -36 86 -81 106 -133c21 -54 28 -110 23 -171l-34 -285c-9 -103 20 -172 88 -208z" />
    <glyph glyph-name="bar" unicode="|" horiz-adv-x="517" 
d="M210 -270h-180l270 1726h180z" />
    <glyph glyph-name="braceright" unicode="}" horiz-adv-x="655" 
d="M-85 -182c45 19 83 51 111 96c30 45 51 109 64 192l31 231c23 127 99 223 230 288c-51 35 -87 80 -107 133c-21 53 -28 110 -23 171c21 160 33 255 36 285c7 103 -22 173 -89 208l73 174c107 -36 185 -95 235 -176c49 -81 68 -177 56 -288l-30 -221l-1 -56
c4 -73 45 -114 122 -121l-23 -228c-109 -5 -175 -70 -196 -197l-33 -238c-39 -222 -175 -367 -408 -434z" />
    <glyph glyph-name="asciitilde" unicode="~" horiz-adv-x="1266" 
d="M1184 800c-5 -83 -24 -158 -55 -226s-73 -120 -125 -156c-51 -36 -112 -53 -182 -52c-50 1 -94 13 -134 34c-38 22 -79 56 -122 102c-43 45 -80 70 -111 74l-16 1c-37 0 -68 -16 -93 -48c-24 -32 -40 -73 -47 -124l-230 3c8 131 45 235 109 314c66 79 149 117 251 115
c88 -2 168 -41 241 -116l41 -43c34 -34 68 -51 101 -51c73 0 119 58 140 173h232z" />
    <glyph glyph-name="exclamdown" unicode="&#xa1;" horiz-adv-x="607" 
d="M168 623h267l-130 -995h-351zM540 939c1 -50 -16 -92 -51 -125c-35 -34 -79 -51 -131 -51c-51 0 -94 16 -128 47s-52 70 -53 117c-1 50 16 92 51 125c35 34 79 51 131 51c51 0 94 -16 128 -47s52 -70 53 -117z" />
    <glyph glyph-name="cent" unicode="&#xa2;" horiz-adv-x="1183" 
d="M527 239c47 -1 85 12 111 39c28 28 45 64 52 108l308 1c-6 -106 -44 -194 -114 -265c-71 -70 -164 -114 -280 -133l-49 -234h-196l49 235c-113 23 -196 83 -252 180c-54 96 -75 215 -61 356l3 23c19 155 71 279 156 375c85 94 195 151 330 170l47 224h196l-48 -228
c93 -23 164 -72 213 -145s71 -166 68 -278l-308 1c3 113 -37 171 -120 176c-115 4 -184 -94 -206 -294l-11 -139c-3 -113 34 -170 112 -172z" />
    <glyph glyph-name="sterling" unicode="&#xa3;" horiz-adv-x="1202" 
d="M597 561l-12 -111c-10 -71 -42 -132 -97 -184l596 4l-47 -270h-1039l48 269l86 -2c49 18 80 60 94 125l25 169h-159l46 261h150l27 216c17 137 70 244 161 323c90 79 202 117 337 114c132 -3 235 -42 309 -117s110 -179 107 -311l-323 1c2 57 -6 98 -24 122
c-19 24 -46 36 -83 36c-37 1 -69 -13 -94 -44s-42 -72 -49 -123l-25 -217h299l-46 -261h-287z" />
    <glyph glyph-name="currency" unicode="&#xa4;" horiz-adv-x="1365" 
d="M961 105c-123 -86 -246 -128 -369 -125c-133 3 -244 45 -331 126l-153 -132l-123 158l154 125c-38 123 -50 238 -37 345c17 143 75 268 172 375l-116 157l149 130l108 -143c118 77 236 115 354 112c125 -1 232 -40 321 -116l171 148l123 -159l-169 -139
c41 -127 55 -245 42 -352c-17 -135 -69 -255 -158 -360l112 -151l-150 -131zM284 599c-11 -74 -4 -144 18 -210c24 -66 60 -118 111 -157c51 -38 111 -58 181 -61c77 -3 150 16 220 55c69 40 128 95 175 166c47 70 76 145 87 225c10 73 4 143 -18 207
c-22 66 -59 118 -110 156c-51 40 -112 60 -181 63c-77 3 -150 -16 -220 -55s-129 -94 -176 -165s-76 -145 -87 -224z" />
    <glyph glyph-name="yen" unicode="&#xa5;" horiz-adv-x="1085" 
d="M590 940l270 516h362l-425 -712l198 -2l-36 -190h-263l-17 -100h264l-33 -189h-264l-46 -263h-341l46 263h-295l34 189h293l18 100h-295l34 190h244l-175 714h336z" />
    <glyph glyph-name="brokenbar" unicode="&#xa6;" horiz-adv-x="518" 
d="M-36 -270l138 795h285l-138 -795h-285zM417 698h-286l132 758h286z" />
    <glyph glyph-name="section" unicode="&#xa7;" horiz-adv-x="1272" 
d="M1144 508c-5 -67 -25 -122 -60 -166c-35 -45 -81 -83 -138 -115c65 -75 94 -169 87 -280c-10 -140 -80 -244 -211 -311c-99 -51 -216 -75 -351 -73c-158 1 -280 38 -366 111c-86 72 -128 173 -126 302l327 -1c-1 -49 12 -87 41 -112s75 -38 140 -38c127 0 199 40 216 120
c14 63 -35 111 -147 145c-112 35 -194 65 -247 90c-53 26 -96 54 -129 85c-73 67 -106 152 -99 255c5 67 25 123 61 168s82 84 138 115c-66 75 -96 168 -89 279c5 81 32 151 81 210c49 60 116 106 203 138s180 47 281 46c99 -2 184 -20 254 -53c72 -33 126 -82 162 -145
c38 -63 55 -139 54 -228h-326c1 52 -12 92 -39 120s-68 43 -121 44c-49 1 -92 -6 -129 -23c-50 -23 -80 -58 -90 -106c-14 -67 33 -116 140 -147s185 -58 234 -79c176 -76 259 -193 249 -351zM606 652l-110 37c-42 -34 -68 -77 -78 -129c-15 -73 28 -127 129 -161l179 -58
c47 39 76 82 85 129c15 69 -33 123 -142 160z" />
    <glyph glyph-name="dieresis" unicode="&#xa8;" horiz-adv-x="993" 
d="M212 1361c-1 37 12 69 40 95c29 28 63 42 104 43c41 0 76 -13 104 -38c30 -25 45 -56 46 -92c1 -38 -12 -70 -40 -97c-29 -26 -63 -40 -103 -41c-41 0 -77 13 -105 38c-30 25 -45 56 -46 92zM716 1361c-1 38 12 70 40 97c29 26 63 40 103 41c41 0 76 -13 105 -39
c29 -25 45 -56 46 -91c1 -37 -12 -69 -40 -95c-29 -28 -63 -42 -104 -43c-41 0 -76 13 -104 38c-30 25 -45 56 -46 92z" />
    <glyph glyph-name="copyright" unicode="&#xa9;" horiz-adv-x="1570" 
d="M1088 597c-7 -100 -40 -178 -101 -235c-61 -56 -142 -83 -244 -80c-99 3 -175 40 -231 114c-54 72 -78 164 -69 273l11 110c13 123 54 220 122 291c70 72 156 107 259 106c97 -3 172 -32 225 -87s79 -132 78 -230l-152 2c9 118 -40 178 -146 181c-62 1 -114 -22 -156 -70
c-41 -47 -67 -112 -76 -196c-10 -82 -15 -131 -16 -144c0 -14 1 -30 2 -48c2 -49 15 -88 40 -118c25 -31 59 -47 102 -49c113 -5 179 55 200 179zM230 572c13 -138 62 -250 147 -336s190 -130 315 -131c106 -3 207 23 304 77s179 130 247 230c68 98 110 207 127 324
c15 106 5 206 -30 302c-34 94 -88 170 -163 226c-75 55 -163 84 -264 87c-122 3 -238 -32 -348 -103c-110 -72 -196 -171 -259 -297s-88 -252 -76 -379zM113 722c13 131 57 256 133 376c74 118 170 212 286 280s239 101 369 98c122 -3 230 -37 325 -102
c95 -66 166 -157 214 -272c49 -116 66 -238 52 -367c-14 -126 -54 -245 -120 -356c-67 -111 -152 -202 -255 -272c-129 -87 -267 -130 -413 -127c-123 3 -232 37 -326 104c-95 66 -166 157 -214 273s-65 238 -51 365z" />
    <glyph glyph-name="ordfeminine" unicode="&#xaa;" horiz-adv-x="887" 
d="M616 702l-3 72c-59 -55 -126 -83 -201 -83c-69 0 -125 20 -166 61c-42 40 -62 93 -61 159c0 77 31 136 93 177c61 42 148 63 261 63l106 -2l13 55c3 16 4 31 3 46c-2 50 -29 76 -81 78c-80 3 -129 -30 -147 -99l-173 13c5 73 36 131 94 174c59 42 132 62 220 61
c81 -1 145 -27 193 -77s69 -117 62 -200l-53 -347l-4 -59c-1 -29 2 -60 8 -92h-164zM445 833c46 0 100 21 161 63l28 137h-80c-56 -2 -101 -13 -135 -35c-34 -20 -54 -48 -60 -83c-5 -25 1 -45 15 -60c16 -15 39 -22 71 -22z" />
    <glyph glyph-name="guillemotleft" unicode="&#xab;" horiz-adv-x="1032" 
d="M284 499l155 -382l-187 -1l-205 389l1 20l322 390h221zM685 499l155 -382l-187 -1l-205 389l1 20l322 390h221z" />
    <glyph glyph-name="logicalnot" unicode="&#xac;" horiz-adv-x="1100" 
d="M893 374h-196l46 260h-617l30 171h812z" />
    <glyph glyph-name="registered" unicode="&#xae;" horiz-adv-x="1570" 
d="M113 722c13 131 57 256 133 376c74 118 170 212 286 280s239 101 369 98c122 -3 230 -37 325 -102c95 -66 166 -157 214 -272c49 -116 66 -238 52 -367c-14 -126 -54 -245 -120 -356c-67 -111 -152 -202 -255 -272c-129 -87 -267 -130 -413 -127c-123 3 -232 37 -326 104
c-95 66 -166 157 -214 273s-65 238 -51 365zM234 722c-15 -105 -5 -206 29 -301s89 -171 164 -227c75 -57 164 -86 265 -89c106 -3 209 24 308 81c99 56 182 134 248 233c65 99 106 205 122 317c15 105 5 206 -30 302c-34 95 -88 171 -163 226s-163 84 -264 87
c-108 3 -212 -24 -311 -81c-100 -57 -183 -135 -248 -234c-65 -100 -105 -205 -120 -314zM652 653l-53 -337h-148l133 850l256 -1c93 -3 165 -28 217 -73s76 -106 73 -183c-2 -36 -13 -69 -32 -97c-20 -30 -53 -58 -99 -85c43 -36 66 -87 68 -153c1 -19 -1 -49 -5 -90
c-5 -40 -6 -69 -5 -88l4 -63l-1 -19l-148 1c-4 25 -5 49 -4 73c1 29 5 71 12 128c5 42 0 74 -14 97s-43 35 -87 38zM673 787l108 -1c59 2 106 14 141 36c35 21 57 50 64 87c7 41 2 71 -18 91c-18 19 -57 30 -116 32l-141 1z" />
    <glyph glyph-name="macron" unicode="&#xaf;" horiz-adv-x="1043" 
d="M957 1285h-676l28 173h675z" />
    <glyph glyph-name="degree" unicode="&#xb0;" horiz-adv-x="799" 
d="M226 1186c1 79 31 148 88 206c58 58 126 86 204 85c70 -1 129 -29 177 -83c48 -53 71 -117 70 -190c-1 -77 -30 -145 -86 -202c-56 -58 -123 -86 -200 -85c-73 1 -133 28 -182 81s-72 115 -71 188zM377 1188c-4 -33 3 -61 21 -84c19 -22 43 -33 74 -33c34 0 65 13 93 39
c28 25 45 56 50 92c5 35 -2 64 -19 87c-18 23 -42 35 -71 35c-35 0 -67 -13 -95 -40c-30 -27 -47 -59 -53 -96z" />
    <glyph glyph-name="plusminus" unicode="&#xb1;" horiz-adv-x="1079" 
d="M727 974h303l-43 -271h-302l-55 -348h-287l55 348h-302l43 271h301l50 319h287zM857 1h-854l42 264h854z" />
    <glyph glyph-name="uni00B2" unicode="&#xb2;" horiz-adv-x="755" 
d="M688 667h-611l28 159l300 239c80 63 125 117 134 161c5 21 2 38 -9 52c-10 12 -26 19 -48 18c-26 0 -48 -10 -66 -30c-19 -19 -31 -45 -38 -76l-222 -2c4 83 36 151 95 204s133 79 220 78c93 -1 165 -24 217 -68c51 -44 76 -103 74 -178c-3 -87 -53 -166 -151 -239
l-207 -141l316 -2z" />
    <glyph glyph-name="uni00B3" unicode="&#xb3;" horiz-adv-x="755" 
d="M354 1141h82c34 1 62 10 84 26c21 16 34 37 39 63c3 19 -2 34 -15 46c-13 10 -32 16 -55 16c-45 3 -76 -14 -93 -50l-227 -1c5 71 35 127 91 169c57 40 129 60 217 59c94 -2 168 -23 223 -63c54 -39 80 -92 78 -157c-2 -78 -56 -139 -161 -183c79 -27 119 -84 119 -170
c-1 -75 -35 -134 -102 -178c-66 -43 -149 -64 -248 -62c-86 1 -156 25 -212 70c-54 46 -83 107 -84 184l215 -1c5 -49 36 -75 95 -76c31 0 58 8 81 24s37 37 42 63c9 49 -19 75 -84 78h-96z" />
    <glyph glyph-name="acute" unicode="&#xb4;" horiz-adv-x="680" 
d="M415 1536h367l-319 -314h-288z" />
    <glyph glyph-name="mu" unicode="&#xb5;" horiz-adv-x="1284" 
d="M540 1082l-104 -636l-4 -73c0 -85 38 -128 114 -130c77 -3 141 27 194 90l133 749h328l-187 -1082h-296l6 54c-67 -51 -138 -76 -212 -76c-51 0 -100 12 -147 37l-84 -431h-330l260 1498h329z" />
    <glyph glyph-name="paragraph" unicode="&#xb6;" horiz-adv-x="981" 
d="M541 0l91 520l-52 1c-141 2 -250 45 -326 130c-78 85 -110 194 -98 329c13 143 69 258 168 346c99 87 223 131 372 131l322 -1l-252 -1456h-225z" />
    <glyph glyph-name="periodcentered" unicode="&#xb7;" horiz-adv-x="647" 
d="M150 679c-1 51 16 93 52 126s79 50 129 50c49 0 91 -15 126 -45c35 -31 53 -70 54 -119c1 -50 -16 -92 -51 -125c-35 -34 -79 -51 -130 -51s-93 15 -127 46s-52 70 -53 118z" />
    <glyph glyph-name="cedilla" unicode="&#xb8;" horiz-adv-x="562" 
d="M249 12l-19 -67c41 -9 72 -28 94 -57c20 -29 31 -64 31 -105c0 -81 -34 -143 -103 -187c-68 -43 -166 -67 -295 -70l12 188c59 8 94 36 103 84c6 36 -18 57 -71 62l-42 4l43 145z" />
    <glyph glyph-name="uni00B9" unicode="&#xb9;" horiz-adv-x="755" 
d="M538 667h-218l91 529l-177 -36l31 177l376 116l25 1z" />
    <glyph glyph-name="ordmasculine" unicode="&#xba;" horiz-adv-x="920" 
d="M205 1120c11 107 51 194 121 261c68 67 153 99 254 96c99 -3 175 -38 229 -105c54 -68 78 -152 71 -251l-6 -66c-11 -114 -51 -204 -120 -271c-70 -66 -155 -98 -254 -95c-96 3 -172 37 -228 103c-56 67 -80 151 -73 252zM371 1041c-2 -24 -2 -48 0 -72
c3 -41 16 -73 39 -97c22 -25 52 -37 89 -38c51 -2 94 16 131 54c37 37 60 89 70 156l11 101l-1 49c-10 88 -53 133 -128 135c-51 2 -95 -15 -132 -53c-37 -36 -60 -88 -70 -155z" />
    <glyph glyph-name="guillemotright" unicode="&#xbb;" horiz-adv-x="1032" 
d="M322 914l204 -387l-1 -22l-322 -390h-222l307 415l-154 383zM723 914l204 -387l-1 -22l-322 -390h-222l307 415l-154 383z" />
    <glyph glyph-name="onequarter" unicode="&#xbc;" horiz-adv-x="1418" 
d="M508 664h-218l91 529l-177 -36l31 177l376 116l25 1zM377 119l-153 87l877 1126l154 -87zM1197 333l87 1l-34 -177h-76l-28 -157h-220l28 157h-322l12 160l409 471l222 2zM859 337l128 -3l40 195l-21 -26z" />
    <glyph glyph-name="onehalf" unicode="&#xbd;" horiz-adv-x="1501" 
d="M338 119l-153 87l877 1126l154 -87zM486 672h-218l91 529l-177 -36l31 177l376 116l25 1zM1323 0h-611l28 159l300 239c80 63 125 117 134 161c5 21 2 39 -8 51c-11 14 -27 20 -49 19c-26 0 -48 -10 -67 -29c-18 -20 -30 -46 -37 -77l-222 -2c4 83 36 151 95 204
s133 79 220 78c93 -1 165 -24 216 -68c52 -44 77 -103 75 -178c-3 -87 -53 -166 -151 -239l-207 -141l316 -2z" />
    <glyph glyph-name="threequarters" unicode="&#xbe;" horiz-adv-x="1648" 
d="M553 119l-153 87l877 1126l154 -87zM1389 333l87 1l-34 -177h-76l-28 -157h-220l28 157h-322l12 160l409 471l222 2zM1051 337l128 -3l40 195l-21 -26zM397 1141h82c34 1 62 10 83 26c22 16 35 37 40 63c3 19 -2 34 -15 46c-13 10 -32 16 -55 16c-45 3 -76 -14 -93 -50
l-227 -1c5 71 35 127 92 169c56 40 128 60 216 59c94 -2 168 -23 222 -63c55 -39 81 -92 79 -157c-2 -78 -56 -139 -161 -183c79 -27 119 -84 119 -170c-1 -75 -35 -134 -101 -178c-67 -43 -150 -64 -249 -62c-86 1 -157 25 -211 70c-56 46 -84 107 -85 184l215 -1
c5 -49 36 -75 95 -76c31 0 58 8 81 24s37 37 42 63c9 49 -19 75 -84 78h-96z" />
    <glyph glyph-name="questiondown" unicode="&#xbf;" horiz-adv-x="1022" 
d="M679 632c-5 -89 -19 -161 -43 -218c-25 -56 -62 -105 -111 -147l-88 -72c-92 -79 -134 -160 -127 -242c5 -53 32 -80 83 -82c87 -2 141 53 162 166l330 2c-10 -133 -61 -237 -151 -313c-92 -77 -209 -114 -353 -111c-129 1 -231 37 -307 105c-74 70 -108 163 -99 282
c6 111 71 216 194 317l128 102c59 51 96 121 110 209zM798 940c1 -49 -16 -90 -51 -124c-35 -35 -79 -52 -132 -52c-50 0 -92 16 -127 46c-35 32 -53 71 -54 118c-1 50 16 92 52 126c37 33 80 50 131 50c50 0 92 -16 127 -46c35 -32 53 -71 54 -118z" />
    <glyph glyph-name="AE" unicode="&#xc6;" horiz-adv-x="1878" 
d="M1693 0h-872l44 329h-362l-205 -329h-395l965 1456h1018l-46 -264h-533l-42 -316h442l-46 -264h-431l-46 -348h555zM668 601l234 -2l61 468z" />
    <glyph glyph-name="multiply" unicode="&#xd7;" horiz-adv-x="1061" 
d="M15 394l343 306l-237 305l205 171l232 -299l336 298l168 -196l-346 -306l239 -305l-205 -171l-232 298l-336 -297z" />
    <glyph glyph-name="Oslash" unicode="&#xd8;" horiz-adv-x="1377" 
d="M610 -21c-101 1 -193 24 -276 67l-109 -141l-221 1l193 247c-93 156 -127 338 -101 545l5 38c31 225 112 405 244 541s293 203 483 200c99 -1 190 -23 271 -66l84 107l222 -1l-168 -213c93 -156 126 -337 101 -542l-8 -66c-21 -143 -65 -270 -134 -382
c-69 -111 -153 -196 -254 -252c-101 -58 -211 -85 -332 -83zM1015 991l-512 -698c30 -27 72 -41 125 -42c93 -1 169 35 228 109c59 73 101 180 124 318c23 140 35 244 35 313zM441 698c-13 -89 -20 -165 -22 -230l510 696c-31 23 -70 37 -119 40c-96 3 -175 -34 -236 -112
s-102 -189 -123 -333z" />
    <glyph glyph-name="Thorn" unicode="&#xde;" horiz-adv-x="1238" 
d="M591 1456l-45 -258l151 -1c165 -1 293 -42 385 -125c90 -82 131 -191 120 -326c-7 -96 -38 -179 -90 -250c-54 -70 -125 -124 -216 -162c-90 -38 -190 -57 -300 -57l-209 1l-49 -278h-330l252 1456h331zM501 938l-69 -400l174 -1c72 1 132 21 179 57c47 38 76 87 86 150
c9 59 -1 105 -29 138c-30 34 -73 52 -132 55z" />
    <glyph glyph-name="germandbls" unicode="&#xdf;" horiz-adv-x="1300" 
d="M355 0h-330l187 1099c19 147 79 262 179 345c100 82 227 121 381 117c119 -3 215 -39 287 -108s104 -158 97 -265c-2 -29 -8 -57 -18 -83s-30 -65 -60 -119c-29 -52 -47 -87 -54 -104c-6 -17 -11 -35 -14 -55c-5 -29 -2 -59 11 -91s37 -73 74 -124s63 -94 78 -130
s22 -71 21 -104c-6 -124 -55 -222 -148 -294s-213 -107 -360 -106c-105 1 -193 18 -264 50l78 256c59 -33 126 -48 200 -45c45 1 82 14 112 39c31 25 50 56 57 95c5 30 1 61 -11 93c-14 31 -39 70 -78 118c-39 46 -66 87 -81 121s-22 68 -20 103c3 47 23 106 61 176
c36 69 58 114 64 133s10 39 13 60c5 36 -2 66 -21 90c-18 24 -46 37 -83 39c-95 4 -153 -67 -173 -212z" />
    <glyph glyph-name="ae" unicode="&#xe6;" horiz-adv-x="1688" 
d="M1117 -20c-158 3 -274 48 -348 133c-110 -91 -238 -136 -383 -133c-115 1 -207 32 -276 92s-102 142 -97 245c5 110 55 194 150 252s227 87 395 87l141 -1l10 49c3 18 3 35 2 52c-5 55 -36 84 -93 86c-41 1 -75 -7 -104 -26c-28 -18 -46 -43 -53 -76l-328 18
c3 69 26 130 67 181c42 51 103 92 182 122s165 44 258 42c59 0 115 -8 167 -23c52 -16 95 -39 129 -68c99 62 207 92 323 89c87 -3 161 -25 221 -68c62 -43 105 -101 132 -174s35 -156 25 -247l-27 -177h-613c-5 -61 7 -107 38 -141c31 -32 77 -50 138 -52
c52 -1 101 4 148 18c47 12 93 29 140 48l63 -209c-46 -38 -104 -67 -175 -88s-148 -31 -232 -31zM457 211c51 -1 110 20 179 63l36 177l-112 1c-58 -2 -107 -16 -146 -40c-39 -26 -63 -59 -71 -100c-5 -32 3 -57 23 -74c22 -18 52 -27 91 -27zM1235 844
c-99 4 -172 -62 -217 -199h298c7 37 11 65 11 86c0 33 -8 60 -23 80c-16 20 -39 31 -69 33z" />
    <glyph glyph-name="eth" unicode="&#xf0;" horiz-adv-x="1140" 
d="M961 1305c60 -102 102 -206 127 -312s30 -218 15 -337l-9 -63c-17 -121 -56 -231 -116 -327c-61 -98 -134 -170 -220 -218c-85 -48 -177 -71 -276 -69c-89 2 -169 24 -239 66s-123 100 -158 173c-35 74 -49 155 -41 242c13 152 64 274 156 367c90 93 206 138 347 135
c77 -1 152 -23 224 -64c-5 83 -34 163 -87 241l-197 -112l-60 133l142 77c-47 39 -119 71 -215 98l127 244c146 -35 270 -93 371 -176l183 104l58 -133zM508 238c64 -2 118 24 161 79s73 133 90 236l19 103c-36 44 -93 66 -172 66c-51 1 -94 -14 -132 -44
c-36 -30 -64 -74 -82 -132c-17 -58 -23 -112 -18 -162c5 -45 19 -80 42 -106s54 -39 92 -40z" />
    <glyph glyph-name="divide" unicode="&#xf7;" horiz-adv-x="1141" 
d="M1065 563h-1015l43 244h1014zM466 1080c-1 48 16 88 50 122c36 32 79 49 130 49s94 -15 128 -44c35 -29 53 -68 54 -115c1 -48 -16 -88 -50 -122c-36 -32 -79 -49 -131 -49c-53 0 -96 15 -129 46s-51 68 -52 113zM326 271c-1 48 16 89 50 121c36 34 79 50 130 50
c53 0 97 -15 130 -46c33 -30 51 -68 52 -113c1 -48 -16 -89 -50 -121c-36 -34 -79 -50 -131 -50c-53 0 -96 15 -129 46s-51 68 -52 113z" />
    <glyph glyph-name="oslash" unicode="&#xf8;" 
d="M41 544c13 109 46 207 99 294c52 87 120 153 204 199c83 46 176 68 279 67c59 -1 116 -11 172 -28l99 143l189 -1l-150 -215c78 -87 120 -197 126 -328c1 -38 -1 -86 -6 -143c-20 -166 -83 -300 -189 -403c-107 -103 -238 -153 -393 -150c-52 0 -108 8 -167 24l-101 -148
l-190 1l151 218c-80 86 -123 195 -128 328c-2 39 0 87 5 142zM363 527c-11 -61 -16 -113 -16 -157l309 468c-11 4 -27 7 -48 8c-125 2 -206 -98 -242 -299zM746 701l-303 -460l42 -5c62 -1 113 22 154 68c41 48 70 123 89 228c11 73 17 130 18 169z" />
    <glyph glyph-name="thorn" unicode="&#xfe;" horiz-adv-x="1124" 
d="M1053 540c-21 -170 -73 -307 -157 -410c-85 -104 -193 -154 -324 -151c-95 3 -172 39 -229 110l-98 -505h-330l339 1952h330l-106 -541c70 73 150 108 241 107c105 -1 187 -38 245 -112c60 -72 91 -174 95 -305c1 -41 -1 -90 -6 -145zM733 674c0 110 -37 166 -112 168
c-68 4 -125 -24 -170 -83l-78 -434c21 -55 66 -84 135 -85c118 -3 190 97 216 300c6 63 9 107 9 134z" />
    <glyph glyph-name="dcroat" unicode="&#x111;" horiz-adv-x="1291" 
d="M1267 1215h-136l-210 -1215h-293l14 117c-82 -94 -172 -140 -269 -138c-101 1 -182 39 -242 113c-60 73 -92 177 -97 310c-2 42 -1 83 4 123l2 22c15 120 47 225 96 316c90 164 219 244 388 240c91 -3 167 -42 228 -117l50 229h-245l33 191h244l23 130h330l-23 -130h136z
M368 520c-5 -43 -8 -80 -7 -112c0 -111 37 -168 112 -170c65 -2 123 30 174 95l74 415c-22 61 -66 93 -133 95c-61 1 -110 -25 -148 -79c-38 -55 -62 -136 -72 -244z" />
    <glyph glyph-name="Hbar" unicode="&#x126;" horiz-adv-x="1457" 
d="M1424 1243h114l-32 -183h-114l-183 -1060h-341l106 608h-500l-105 -608h-343l184 1060h-99l32 183h98l38 213h342l-37 -213h499l38 213h340zM521 878h499l32 182h-499z" />
    <glyph glyph-name="dotlessi" unicode="&#x131;" horiz-adv-x="576" 
d="M345 0h-331l188 1082h331z" />
    <glyph glyph-name="kgreenlandic" unicode="&#x138;" horiz-adv-x="1215" 
d="M527 378h-122l-67 -378h-328l187 1082h329l-68 -389h77l286 389l440 -1l-433 -521l238 -560h-409z" />
    <glyph glyph-name="Lslash" unicode="&#x141;" horiz-adv-x="1135" 
d="M553 920l198 52l-33 -188l-197 -53l-80 -461h593l-48 -270h-935l110 633l-138 -36l33 188l138 37l110 634h342z" />
    <glyph glyph-name="lslash" unicode="&#x142;" horiz-adv-x="652" 
d="M538 931l138 41l-33 -190l-138 -42l-129 -740h-330l111 634l-134 -39l34 190l133 40l123 711h330z" />
    <glyph glyph-name="Eng" unicode="&#x14a;" horiz-adv-x="1419" 
d="M1447 1456l-250 -1462c-17 -137 -66 -244 -149 -320c-82 -78 -187 -115 -315 -114c-52 1 -109 8 -171 19l43 266c36 -9 68 -14 96 -14c38 1 69 14 94 38s45 65 62 123l2 8l-353 920l-160 -920h-341l252 1456h332l356 -919l160 919h342z" />
    <glyph glyph-name="eng" unicode="&#x14b;" 
d="M478 1083l-25 -157c89 120 194 179 314 176c88 -1 156 -32 203 -93s72 -145 73 -253l-5 -105l-107 -666c-17 -131 -64 -235 -142 -311c-78 -77 -181 -115 -310 -115c-55 1 -110 7 -165 18l37 258c34 -12 67 -17 98 -16c80 0 130 55 151 166l109 668l5 60
c3 82 -26 125 -87 128c-60 2 -120 -22 -179 -72l-137 -769h-329l188 1082z" />
    <glyph glyph-name="OE" unicode="&#x152;" horiz-adv-x="1944" 
d="M1763 0h-864l-196 -17l-87 -1c-110 2 -208 29 -293 80s-149 122 -190 214c-41 90 -55 191 -41 300l48 311c17 115 58 217 122 307c64 91 146 160 246 210c99 48 208 73 327 73l73 -2l207 -19h902l-47 -271h-634l-54 -307h536l-46 -261h-534l-61 -347h633zM631 242
c55 -2 120 1 193 8l178 955c-64 10 -124 15 -179 15c-91 1 -169 -27 -231 -86c-64 -59 -104 -141 -121 -246l-49 -313c-5 -41 -6 -81 -3 -120c5 -65 26 -116 63 -153c36 -37 86 -57 149 -60z" />
    <glyph glyph-name="oe" unicode="&#x153;" horiz-adv-x="1800" 
d="M72 545c20 169 83 305 190 407c107 104 237 154 392 151c141 -3 251 -45 328 -124c105 85 221 126 348 123c133 -3 236 -50 308 -141c71 -91 99 -208 82 -349l-27 -177l-601 1c-1 -55 12 -101 39 -136s70 -54 127 -57c54 -2 105 3 154 17c48 12 97 29 146 48l63 -209
c-46 -37 -105 -67 -176 -87c-71 -22 -153 -32 -244 -32c-141 3 -250 46 -328 127c-111 -87 -234 -130 -370 -127c-144 3 -255 53 -335 152c-78 98 -112 224 -99 378l1 13zM394 433c-1 -61 9 -108 32 -142s57 -52 102 -53c61 -2 111 21 150 70c40 48 66 123 79 224l7 111
c1 62 -9 111 -32 145c-23 36 -57 54 -102 55c-61 2 -111 -22 -150 -73c-40 -51 -66 -126 -79 -226zM1307 844c-75 2 -133 -45 -174 -142l-22 -57h288c8 40 12 70 11 91c-3 70 -37 106 -103 108z" />
    <glyph glyph-name="longs" unicode="&#x17f;" horiz-adv-x="533" 
d="M-14 0l199 1170c15 123 64 219 146 288s188 103 318 102c43 0 99 -7 169 -20l-42 -253c-35 9 -67 13 -98 13c-42 0 -77 -11 -105 -34c-28 -22 -46 -54 -55 -96l-202 -1170h-330z" />
    <glyph glyph-name="uni018F" unicode="&#x18f;" horiz-adv-x="1397" 
d="M607 -21c-121 1 -225 31 -309 90c-86 59 -146 140 -182 245c-36 104 -45 223 -28 356l29 177l889 -1c15 104 -2 184 -54 242c-50 56 -128 86 -232 89c-131 3 -265 -16 -404 -57l-22 286c80 43 202 66 366 69l99 1c131 -2 243 -31 338 -86c95 -56 164 -134 208 -236
c44 -100 58 -215 41 -343l-25 -171c-19 -125 -61 -239 -129 -342c-66 -102 -151 -181 -253 -237s-213 -83 -332 -82zM630 275c77 -2 144 22 201 73s104 126 140 225l-553 -1l-8 -34c-7 -40 -8 -76 -1 -108c13 -60 47 -103 103 -130c34 -16 73 -24 118 -25z" />
    <glyph glyph-name="florin" unicode="&#x192;" horiz-adv-x="745" 
d="M738 848h-207l-136 -883c-16 -129 -61 -229 -135 -300c-73 -71 -169 -106 -288 -105c-51 1 -106 8 -166 19l39 256c33 -10 61 -15 84 -15c38 0 68 11 90 33s37 59 45 112l136 883h-152l37 234h151l12 97c16 120 64 214 146 281c80 67 185 100 314 99c40 0 97 -7 170 -21
l-44 -251c-35 9 -67 13 -98 13c-87 -1 -139 -45 -156 -130l-13 -88h208z" />
    <glyph glyph-name="Ohorn" unicode="&#x1a0;" horiz-adv-x="1420" 
d="M604 -20c-139 3 -254 46 -344 130c-90 85 -146 201 -168 348l-7 63c-5 79 0 168 17 267c17 100 46 193 90 280c42 86 96 160 158 222c64 61 135 108 216 140c80 33 165 48 255 46c87 -1 167 -19 241 -54c74 -34 136 -84 185 -150c77 29 124 94 143 197l13 87l196 1
c-8 -119 -35 -214 -79 -284c-46 -70 -110 -119 -193 -148c9 -61 15 -122 16 -181l-2 -84c-11 -188 -48 -347 -113 -476c-64 -130 -150 -230 -259 -302c-109 -70 -230 -105 -365 -102zM995 943c-3 82 -22 145 -55 189c-33 45 -80 68 -140 70c-91 5 -168 -30 -228 -104
c-62 -74 -103 -185 -125 -333c-15 -103 -22 -187 -19 -251c7 -169 72 -256 196 -261c89 -5 165 31 227 107c62 75 104 186 126 332c15 98 21 182 18 251z" />
    <glyph glyph-name="ohorn" unicode="&#x1a1;" horiz-adv-x="1172" 
d="M43 545c13 109 46 206 99 293c52 87 120 153 203 198c83 46 176 68 279 67c156 -3 275 -55 357 -156c28 24 50 53 67 87c16 35 28 82 37 143l178 1c-8 -92 -29 -166 -64 -222c-35 -55 -84 -99 -148 -130c7 -46 12 -91 13 -136s-1 -91 -6 -137l-3 -21
c-23 -171 -87 -306 -192 -406c-105 -101 -234 -150 -388 -147c-97 3 -181 27 -250 73c-69 47 -120 112 -151 194c-32 84 -43 176 -33 277zM365 434c-3 -59 7 -106 30 -142c23 -34 57 -53 103 -54c61 -2 111 21 150 70s65 123 78 224l8 111c1 61 -9 110 -32 145
s-57 54 -102 55c-60 2 -110 -22 -150 -71c-39 -49 -65 -125 -78 -228z" />
    <glyph glyph-name="Uhorn" unicode="&#x1af;" horiz-adv-x="1440" 
d="M1377 1456l-43 -236c69 7 122 33 159 77s61 124 72 240l198 1c-13 -159 -57 -278 -129 -354c-74 -78 -179 -118 -318 -123l-101 -556c-24 -166 -92 -296 -205 -389c-112 -93 -253 -139 -424 -136c-79 1 -150 15 -215 40s-119 61 -162 108c-90 95 -126 221 -108 377
l162 951h344l-161 -952c-4 -33 -5 -65 -2 -95c7 -103 62 -157 165 -160c146 -5 234 82 265 261l161 946h342z" />
    <glyph glyph-name="uhorn" unicode="&#x1b0;" horiz-adv-x="1204" 
d="M1411 1182c-7 -116 -38 -205 -91 -268c-54 -62 -132 -101 -234 -117l-146 -797h-306l21 118c-81 -95 -178 -141 -292 -140c-105 1 -185 39 -238 112s-74 171 -62 292l116 700h329l-120 -704c-2 -19 -2 -37 0 -53c5 -55 37 -83 97 -85c70 -3 129 25 178 82l134 760h331
l-33 -137c41 19 72 47 94 81c22 36 37 87 46 155z" />
    <glyph glyph-name="uni0237" unicode="&#x237;" horiz-adv-x="596" 
d="M547 1082l-187 -1096c-17 -131 -64 -234 -143 -311s-182 -115 -311 -115c-50 1 -105 8 -165 19l41 256c33 -10 64 -15 94 -15c84 0 136 59 156 176l186 1086h329z" />
    <glyph glyph-name="uni0259" unicode="&#x259;" horiz-adv-x="1061" 
d="M576 1102c92 -1 173 -25 244 -71c70 -46 122 -109 156 -188c33 -79 45 -167 36 -262l-1 -12c-19 -185 -79 -330 -182 -436s-229 -157 -380 -153c-135 4 -238 52 -309 143c-72 91 -100 207 -83 348l27 177l601 -1c1 55 -13 100 -40 135c-27 36 -70 55 -127 58
c-54 2 -105 -4 -153 -16c-48 -14 -97 -30 -146 -49l-62 209c47 39 107 68 181 89c72 21 152 30 238 29zM471 239c42 -2 79 12 110 43c31 30 60 82 85 156h-287l-7 -30c-3 -21 -5 -41 -4 -60c3 -71 37 -107 103 -109z" />
    <glyph glyph-name="circumflex" unicode="&#x2c6;" horiz-adv-x="1012" 
d="M1029 1259v-22l-250 5l-130 135l-178 -134l-262 -4l-1 24l348 273h185z" />
    <glyph glyph-name="caron" unicode="&#x2c7;" horiz-adv-x="965" 
d="M603 1404l166 132l289 6l1 -21l-351 -278h-211l-285 280l-1 20l274 -6z" />
    <glyph glyph-name="uni02C9" unicode="&#x2c9;" horiz-adv-x="1044" 
d="M957 1285h-676l28 173h675z" />
    <glyph glyph-name="breve" unicode="&#x2d8;" horiz-adv-x="909" 
d="M947 1540c-4 -95 -41 -171 -113 -228c-70 -57 -158 -84 -263 -81c-99 1 -180 30 -243 85c-62 56 -94 131 -95 224l222 -2c-1 -83 37 -125 116 -128c42 -1 76 10 103 34c26 22 43 54 50 94z" />
    <glyph glyph-name="dotaccent" unicode="&#x2d9;" horiz-adv-x="556" 
d="M239 1373c-1 44 14 81 45 109c32 30 70 44 114 44c45 1 83 -12 114 -38c31 -28 48 -62 49 -105s-13 -79 -43 -108c-31 -29 -69 -44 -115 -44c-45 -1 -83 11 -115 39c-31 26 -48 61 -49 103z" />
    <glyph glyph-name="ring" unicode="&#x2da;" horiz-adv-x="664" 
d="M236 1287c-1 59 20 109 65 149c45 42 98 62 160 62c57 0 107 -19 149 -58c41 -38 62 -84 62 -139c0 -59 -22 -109 -66 -148c-43 -39 -96 -59 -157 -59c-58 0 -108 18 -149 55s-63 83 -64 138zM354 1288c-4 -27 1 -50 14 -69c14 -19 35 -29 63 -29c29 0 56 11 81 32
c24 22 38 48 42 78c4 26 -1 49 -14 70c-14 20 -35 30 -63 30c-31 0 -58 -11 -81 -34c-24 -22 -38 -48 -42 -78z" />
    <glyph glyph-name="ogonek" unicode="&#x2db;" horiz-adv-x="636" 
d="M306 0l-67 -42c-59 -38 -92 -80 -97 -125c-5 -35 8 -53 39 -54c14 -1 37 5 69 17l27 -171c-43 -27 -95 -41 -154 -41c-65 0 -119 19 -159 56c-42 37 -62 87 -62 150c0 55 16 104 49 148c33 43 88 84 165 123z" />
    <glyph glyph-name="tilde" unicode="&#x2dc;" horiz-adv-x="967" 
d="M998 1533c-5 -81 -29 -147 -73 -199s-99 -78 -166 -78c-24 0 -47 5 -68 14s-43 20 -67 32c-22 13 -44 23 -64 31c-21 8 -42 12 -65 11c-45 -2 -75 -32 -91 -91l-188 10c5 78 30 144 74 197c46 54 101 80 167 79c30 -1 70 -14 121 -39c50 -25 82 -40 98 -44
c14 -3 30 -5 47 -4c43 2 75 32 94 91z" />
    <glyph glyph-name="hungarumlaut" unicode="&#x2dd;" horiz-adv-x="867" 
d="M785 1535h294l-310 -300h-255zM382 1535h295l-283 -300h-256z" />
    <glyph glyph-name="uni02F3" unicode="&#x2f3;" horiz-adv-x="658" 
d="M8 -231c-1 49 16 91 54 127c36 35 82 53 135 53c51 0 94 -16 129 -48c36 -32 55 -72 56 -120c1 -51 -16 -93 -54 -127c-36 -33 -81 -50 -133 -50c-51 0 -94 16 -131 47c-36 31 -55 71 -56 118zM129 -230c-3 -17 -1 -32 9 -45c8 -13 22 -20 39 -20c21 0 39 8 54 23
c15 16 25 33 28 52c3 16 1 31 -6 45s-20 21 -38 22c-20 0 -39 -8 -56 -24s-27 -34 -30 -53z" />
    <glyph glyph-name="gravecomb" unicode="&#x300;" horiz-adv-x="0" 
d="M-242 1223l-248 -1l-225 312l331 2z" />
    <glyph glyph-name="acutecomb" unicode="&#x301;" horiz-adv-x="0" 
d="M-326 1536l369 -1l-325 -313h-290z" />
    <glyph glyph-name="tildecomb" unicode="&#x303;" horiz-adv-x="0" 
d="M-27 1533c-5 -81 -29 -147 -73 -199s-99 -78 -166 -78c-24 0 -47 5 -68 14s-44 20 -66 32c-24 13 -45 23 -66 31c-20 8 -41 12 -64 11c-45 -2 -75 -32 -91 -91l-188 10c5 78 29 144 75 197c44 54 100 80 166 79c30 -1 70 -14 120 -39c51 -25 84 -40 98 -44
c16 -3 31 -5 48 -4c43 2 75 32 94 91z" />
    <glyph glyph-name="hookabovecomb" unicode="&#x309;" horiz-adv-x="0" 
d="M-610 1275l-5 128l31 2c71 5 110 27 119 66c7 35 -17 55 -74 58l-43 1l17 146l96 -5c192 -17 288 -79 288 -186c0 -79 -53 -128 -159 -146l-9 -65z" />
    <glyph glyph-name="uni030F" unicode="&#x30f;" horiz-adv-x="0" 
d="M-374 1252h-287l-229 266h324zM-6 1252h-288l-192 266h325z" />
    <glyph glyph-name="dotbelowcomb" unicode="&#x323;" horiz-adv-x="0" 
d="M-902 -235c-3 45 14 82 50 111c37 29 80 44 130 44s93 -13 128 -40s54 -62 55 -105c1 -46 -16 -83 -51 -112c-36 -29 -79 -43 -129 -43s-93 13 -128 40s-54 62 -55 105z" />
    <glyph glyph-name="tonos" unicode="&#x384;" horiz-adv-x="766" 
d="M483 1602h310l-244 -346h-208z" />
    <glyph glyph-name="dieresistonos" unicode="&#x385;" horiz-adv-x="1138" 
d="M707 1780h296l-237 -356h-158zM231 1360c-1 39 13 72 41 98c30 28 64 41 103 41c40 0 75 -12 104 -37s45 -55 46 -92c1 -39 -12 -72 -41 -98c-29 -28 -63 -41 -102 -41c-41 0 -76 13 -105 37c-29 26 -45 56 -46 92zM848 1360c-1 37 12 70 40 96c28 28 62 42 103 43
c40 1 75 -11 105 -37c29 -26 45 -57 46 -92c1 -39 -12 -72 -41 -98c-29 -28 -63 -41 -102 -41c-41 0 -76 13 -105 37c-29 26 -45 56 -46 92z" />
    <glyph glyph-name="anoteleia" unicode="&#x387;" horiz-adv-x="648" 
d="M150 679c-1 51 16 93 52 126s79 50 129 50c49 0 91 -15 126 -45c35 -31 53 -70 54 -119c1 -50 -16 -92 -51 -125c-35 -34 -79 -51 -130 -51s-93 15 -127 46s-52 70 -53 118z" />
    <glyph glyph-name="Gamma" unicode="&#x393;" horiz-adv-x="1118" 
d="M1162 1185h-614l-206 -1185h-342l252 1456h957z" />
    <glyph glyph-name="uni0394" unicode="&#x394;" horiz-adv-x="1488" 
d="M874 1456l3 -4l5 5l192 -1l302 -1456h-1472l792 1455zM417 272l561 -2l-146 783z" />
    <glyph glyph-name="Theta" unicode="&#x398;" horiz-adv-x="1384" 
d="M845 589h-309l46 259h308zM605 -20c-139 3 -254 46 -344 130c-90 85 -146 201 -168 348l-7 63c-5 79 0 168 17 267c17 100 46 193 89 280c64 130 151 231 260 304c109 72 232 107 369 104c99 -2 186 -25 261 -68c74 -44 133 -107 178 -189s71 -175 78 -280
c4 -58 3 -117 -4 -176l-6 -45c-31 -226 -112 -406 -244 -541c-131 -135 -291 -200 -479 -197zM995 943c-7 168 -72 254 -194 259c-93 3 -170 -32 -231 -107c-60 -75 -101 -186 -123 -333c-15 -103 -21 -186 -18 -249c7 -169 72 -255 196 -260c81 -4 151 25 210 87
c59 63 101 154 127 272c26 120 37 230 33 331z" />
    <glyph glyph-name="Lambda" unicode="&#x39b;" horiz-adv-x="1286" 
d="M716 1013l-445 -1013h-380l705 1456h371l202 -1456h-361z" />
    <glyph glyph-name="Xi" unicode="&#x39e;" horiz-adv-x="1129" 
d="M21 270h981l-48 -270h-980zM250 857h730l-45 -257h-730zM261 1456h889l-48 -271h-888z" />
    <glyph glyph-name="Pi" unicode="&#x3a0;" horiz-adv-x="1408" 
d="M1190 0h-342l205 1185h-505l-206 -1185h-342l252 1456h1191z" />
    <glyph glyph-name="Sigma" unicode="&#x3a3;" horiz-adv-x="1129" 
d="M863 733l-383 -462l541 -2l-47 -269h-1008l29 166l510 588l-310 567l24 135h996l-48 -271h-537l233 -438v-14z" />
    <glyph glyph-name="Phi" unicode="&#x3a6;" horiz-adv-x="1595" 
d="M1087 1290c152 -11 271 -68 358 -173c85 -104 121 -234 108 -391c-10 -108 -43 -204 -99 -286c-57 -84 -133 -149 -228 -197c-96 -48 -202 -74 -318 -79l-37 -164h-340l37 165c-101 6 -189 33 -265 81c-76 47 -132 111 -169 192c-36 81 -49 171 -40 271
c10 111 44 211 102 297c59 88 136 156 232 205c95 49 202 76 319 81l36 164h341zM429 707c-9 -68 0 -124 29 -167c29 -44 77 -72 144 -83l107 544c-81 -12 -145 -44 -193 -96s-77 -118 -87 -198zM1221 823c-13 98 -70 156 -169 175l-106 -543c63 9 117 31 162 67
c45 34 76 80 95 135s25 111 18 166z" />
    <glyph glyph-name="Psi" unicode="&#x3a8;" horiz-adv-x="1491" 
d="M946 671c69 16 124 51 166 105c41 53 70 132 86 235l74 445h344l-74 -439c-26 -179 -94 -322 -204 -429c-109 -108 -250 -170 -423 -185l-78 -403h-341l78 402c-157 14 -276 78 -358 192s-112 255 -91 423l74 439h342l-73 -440c-5 -35 -7 -70 -8 -105
c-1 -60 10 -111 35 -151c25 -42 61 -70 110 -85l144 781h341z" />
    <glyph glyph-name="uni03A9" unicode="&#x3a9;" horiz-adv-x="1350" 
d="M652 277c68 47 120 119 158 215c36 98 64 244 81 440l3 69c0 130 -42 197 -125 202c-61 3 -111 -22 -151 -75c-40 -52 -68 -128 -84 -229l-39 -286l-6 -88c-3 -57 1 -107 13 -151c13 -42 33 -75 60 -96l-45 -278h-506l50 274l213 2c-85 133 -133 259 -145 378
c-5 45 -4 91 1 140l8 61c25 188 99 339 220 454c122 115 267 170 435 166c105 -3 197 -30 275 -83c77 -53 135 -126 172 -218c37 -94 50 -195 38 -305l-8 -62c-30 -224 -141 -403 -332 -537l217 4l-48 -274h-499z" />
    <glyph glyph-name="alpha" unicode="&#x3b1;" horiz-adv-x="1127" 
d="M1094 1082l-121 -715c-5 -34 -6 -58 -5 -73c1 -31 14 -48 38 -50h9l7 2l2 -247c-34 -13 -72 -19 -115 -18c-64 1 -118 17 -161 46s-73 70 -88 121c-46 -63 -91 -108 -134 -134c-44 -25 -91 -37 -142 -36c-103 1 -185 39 -246 113s-93 174 -98 301c-2 42 -1 83 4 123l2 22
c21 170 74 307 160 413c85 104 194 155 327 152c98 -3 171 -51 218 -146l52 126h291zM376 511l-6 -81l-1 -31c2 -103 39 -156 112 -159c50 -2 98 19 145 62l87 468c-23 47 -61 72 -115 74c-59 1 -108 -25 -146 -79c-37 -54 -62 -132 -73 -233z" />
    <glyph glyph-name="beta" unicode="&#x3b2;" horiz-adv-x="1216" 
d="M748 1477c140 -3 248 -40 324 -109s110 -162 102 -278c-9 -141 -90 -253 -242 -335c68 -32 117 -78 148 -137c30 -60 43 -127 38 -201c-8 -134 -56 -241 -144 -321c-87 -81 -199 -120 -336 -117c-93 1 -181 26 -265 74l-91 -468h-329l245 1433c19 138 79 249 182 334
c102 85 225 126 368 125zM647 855c111 3 174 71 190 205c5 49 -3 88 -23 116c-20 27 -50 42 -89 43c-49 1 -92 -16 -127 -51s-58 -83 -69 -143l-130 -747c43 -27 99 -40 168 -40c59 0 109 18 153 52c42 36 68 80 75 134c5 29 5 55 2 80c-11 76 -60 116 -148 120l-77 1
l23 232z" />
    <glyph glyph-name="gamma" unicode="&#x3b3;" horiz-adv-x="1031" 
d="M469 375l281 707h356l-527 -1082h-7l-77 -417h-330l81 417h-3l-155 1082h338z" />
    <glyph glyph-name="delta" unicode="&#x3b4;" 
d="M287 1236c5 106 48 190 131 251s189 91 318 90c59 -1 144 -15 257 -43l-25 -243c-81 31 -148 45 -201 44c-47 0 -87 -8 -119 -23c-31 -16 -51 -39 -58 -68c-13 -46 16 -83 86 -112c153 -72 261 -155 323 -249s87 -204 74 -330l-2 -21c-13 -107 -46 -204 -101 -290
c-54 -85 -123 -151 -208 -197s-177 -68 -278 -65c-96 2 -179 25 -250 70s-123 107 -157 187s-47 170 -39 270c12 123 52 226 120 307c69 81 156 132 262 153l-3 14c-91 69 -134 154 -130 255zM370 482c-5 -73 5 -131 28 -176c24 -45 60 -68 109 -69c62 -2 114 25 157 82
s70 134 82 231l3 20c3 28 3 57 1 87c-3 50 -17 93 -40 130s-55 62 -94 76c-66 -3 -120 -33 -162 -87c-41 -56 -67 -127 -78 -215z" />
    <glyph glyph-name="epsilon" unicode="&#x3b5;" horiz-adv-x="1134" 
d="M581 451c-123 -4 -192 -45 -207 -122c-7 -32 3 -59 30 -79c26 -22 60 -32 102 -32c105 0 166 34 183 102l332 1c-7 -110 -58 -195 -153 -255c-95 -61 -212 -90 -351 -87c-95 2 -180 17 -255 45c-75 27 -132 64 -168 110c-38 47 -55 101 -53 164c2 61 23 113 63 157
c39 44 100 80 181 109c-43 23 -78 54 -104 91s-39 78 -39 122c1 65 22 121 63 171c41 48 104 87 187 114c83 28 176 41 277 39c127 -3 229 -35 305 -95c78 -60 117 -140 119 -240l-324 1c-2 62 -46 93 -133 93c-43 0 -81 -10 -114 -30s-53 -47 -60 -82
c-10 -56 30 -86 120 -90l189 -1l-36 -207z" />
    <glyph glyph-name="zeta" unicode="&#x3b6;" horiz-adv-x="981" 
d="M1102 1456l-34 -192l-469 -471c-96 -101 -158 -196 -186 -285c-19 -59 -25 -107 -19 -142c7 -51 46 -89 115 -114c69 -26 117 -44 142 -55c115 -49 170 -124 165 -226c-7 -127 -104 -249 -293 -364l-163 128l29 29c46 47 74 93 85 137c6 25 4 44 -6 56
c-9 12 -26 22 -49 30l-51 16c-220 69 -323 193 -309 370c12 159 88 319 227 479l116 127l222 217l-454 2l45 258h887z" />
    <glyph glyph-name="eta" unicode="&#x3b7;" 
d="M478 1083l-24 -138c87 107 192 159 313 158c97 -2 169 -37 219 -105c48 -68 69 -162 61 -283l-2 -24l-188 -1107h-330l190 1109l2 53c-5 60 -35 92 -92 95c-61 3 -120 -21 -178 -70l-138 -771h-329l188 1082z" />
    <glyph glyph-name="theta" unicode="&#x3b8;" horiz-adv-x="1204" 
d="M514 -20c-115 3 -208 38 -280 107c-70 69 -113 164 -128 286c-9 73 -9 147 0 222l41 265c29 197 93 349 193 458c101 109 230 161 387 158c127 -3 227 -46 299 -129c71 -83 109 -196 113 -337c1 -49 -1 -99 -7 -149l-38 -253c-31 -207 -97 -364 -198 -472
c-100 -107 -227 -159 -382 -156zM774 612h-332c-15 -87 -22 -148 -22 -183c-3 -123 35 -186 116 -191c102 -5 171 69 207 221l19 93zM467 858h332l9 48c7 41 11 81 12 122c3 122 -35 185 -116 190c-104 5 -175 -72 -212 -231l-17 -82z" />
    <glyph glyph-name="iota" unicode="&#x3b9;" horiz-adv-x="687" 
d="M522 1082l-120 -724l-2 -44c2 -37 27 -57 75 -59c15 -1 42 1 83 5l-23 -244c-59 -18 -119 -27 -178 -26c-102 1 -178 31 -229 90s-71 139 -62 240l127 762h329z" />
    <glyph glyph-name="lambda" unicode="&#x3bb;" horiz-adv-x="1093" 
d="M433 1555c64 -1 118 -17 163 -47c45 -31 76 -73 93 -127l222 -1015c10 -46 21 -77 34 -94s29 -26 48 -28l37 -1l-27 -258l-56 -3h-26c-177 3 -283 80 -318 232l-68 401l-290 -615h-362l564 1094l-30 113c-10 33 -26 56 -49 69s-55 19 -96 16l-34 -2l14 243
c59 16 119 23 181 22z" />
    <glyph glyph-name="xi" unicode="&#x3be;" horiz-adv-x="1106" 
d="M1031 1171c-62 17 -106 28 -133 33c-26 5 -53 7 -80 6c-56 0 -103 -12 -141 -34c-38 -24 -61 -57 -69 -100c-13 -73 33 -111 138 -115l169 -1l-48 -271l-122 1c-94 0 -171 -21 -231 -62c-59 -41 -94 -99 -104 -172c-7 -48 3 -88 28 -120c25 -33 72 -60 140 -81l99 -28
c93 -27 158 -62 195 -103c38 -42 56 -93 53 -154c-3 -60 -29 -121 -78 -184c-49 -62 -121 -122 -216 -180l-162 128c67 67 105 122 114 166c8 37 -10 65 -54 85l-136 51l-74 31c-91 39 -155 89 -193 149c-39 59 -55 134 -49 225c7 93 39 171 97 234c57 63 143 114 257 153
c-102 53 -151 133 -147 242c5 121 53 220 146 295s211 113 356 113c101 -1 209 -20 324 -57z" />
    <glyph glyph-name="pi" unicode="&#x3c0;" horiz-adv-x="1340" 
d="M1321 840h-178l-82 -480l-2 -45c2 -38 28 -58 77 -60c13 -1 42 1 85 5l-24 -244c-58 -18 -117 -27 -178 -26c-103 2 -179 32 -229 90c-51 57 -71 137 -62 240l85 520h-208l-146 -840h-329l146 840h-177l42 242h1223z" />
    <glyph glyph-name="rho" unicode="&#x3c1;" 
d="M86 578c15 103 48 196 100 276c53 82 120 144 202 187s173 64 272 61c129 -3 230 -51 301 -142s104 -215 98 -371l-3 -47l-2 -22c-20 -165 -73 -297 -158 -396c-85 -100 -193 -148 -323 -145c-97 3 -173 44 -228 122l-99 -517h-330zM370 305c27 -45 73 -68 140 -69
c58 -1 106 22 143 70c37 49 61 120 71 214l1 21c5 54 7 94 7 119c-3 119 -43 180 -118 184c-107 6 -176 -94 -205 -301z" />
    <glyph glyph-name="sigma1" unicode="&#x3c2;" horiz-adv-x="1006" 
d="M607 1102c126 -3 224 -43 293 -121c70 -78 104 -183 101 -314h-309c4 113 -32 172 -108 176c-121 6 -194 -92 -220 -293c-5 -52 -6 -90 -5 -113c2 -83 42 -142 121 -177l116 -45c116 -46 173 -121 172 -225c-1 -63 -28 -127 -81 -192s-122 -123 -207 -173l-167 129l32 32
c49 49 77 94 84 135s-8 70 -44 85c-100 43 -175 88 -226 135s-86 101 -107 163c-20 63 -26 137 -18 223l3 23c13 110 45 208 98 294c53 85 119 150 201 195c80 45 171 66 271 63z" />
    <glyph glyph-name="sigma" unicode="&#x3c3;" horiz-adv-x="1151" 
d="M1153 822l-239 -2l40 -61c51 -83 74 -165 69 -246c-15 -165 -73 -295 -173 -393c-102 -96 -227 -144 -378 -141c-139 2 -248 49 -328 141s-117 212 -112 361l3 46l3 22c19 160 80 289 186 385c104 98 238 147 401 150l1 -3v2l574 -1zM361 465c-9 -149 35 -225 134 -228
c64 -2 114 29 150 93c36 63 57 160 63 291l1 43c-3 101 -42 154 -115 159c-77 3 -137 -35 -180 -113c-31 -56 -48 -138 -53 -245z" />
    <glyph glyph-name="tau" unicode="&#x3c4;" horiz-adv-x="1040" 
d="M1048 824h-340l-81 -475l-2 -38c-2 -42 17 -64 58 -66c21 -2 54 2 97 11v-254c-57 -16 -115 -23 -172 -20c-108 3 -189 37 -244 104c-54 67 -76 155 -65 265l78 473h-317l45 258h988z" />
    <glyph glyph-name="upsilon" unicode="&#x3c5;" horiz-adv-x="1093" 
d="M517 1082l-109 -675l-4 -46c-3 -34 0 -63 10 -86c9 -23 26 -36 49 -37c74 -6 135 43 183 148c47 104 72 252 73 443c0 87 -9 172 -28 256l296 -2c39 -114 55 -242 48 -383l-7 -88c-21 -206 -84 -364 -186 -474c-104 -110 -235 -163 -396 -160c-127 3 -224 43 -290 122
c-66 78 -92 182 -79 312l112 670h328z" />
    <glyph glyph-name="phi" unicode="&#x3c6;" horiz-adv-x="1530" 
d="M504 -6c-159 27 -278 94 -358 203s-111 243 -92 403c11 98 40 190 86 278c47 86 108 161 184 224l228 -163c-119 -145 -178 -294 -176 -448c0 -57 14 -106 40 -146c28 -40 67 -69 118 -88l94 529c13 95 53 172 120 232c68 59 147 88 236 87c92 -1 175 -21 249 -59
c74 -39 132 -92 174 -160c57 -92 78 -197 65 -315c-11 -109 -45 -205 -100 -287c-56 -84 -130 -150 -222 -200c-91 -50 -197 -82 -317 -95l-89 -467h-330zM862 251c166 48 260 155 281 322l3 49c3 73 -7 129 -28 170c-21 40 -53 57 -96 52c-17 -3 -30 -8 -38 -15
c-9 -7 -15 -19 -19 -35z" />
    <glyph glyph-name="psi" unicode="&#x3c8;" horiz-adv-x="1532" 
d="M1017 1082l-152 -827c163 53 259 170 290 352c13 77 17 158 14 244c-3 79 -15 157 -36 234l282 -3c66 -136 89 -293 68 -470s-89 -320 -203 -428c-116 -109 -264 -173 -445 -194l-89 -468h-329l90 472c-153 25 -269 89 -347 194c-80 105 -109 238 -90 399l83 495h330
l-84 -499c-5 -34 -6 -67 -5 -100c2 -112 50 -187 143 -224l151 823h329z" />
    <glyph glyph-name="omega" unicode="&#x3c9;" horiz-adv-x="1639" 
d="M599 1081l-98 -197c-52 -109 -86 -206 -103 -289c-16 -83 -23 -156 -20 -218c3 -89 30 -136 81 -139c43 -4 79 15 109 57s51 110 64 205l60 372h352l-59 -372l-7 -97c-2 -49 4 -89 20 -118c14 -29 37 -45 68 -46c43 -1 79 21 108 67c29 47 51 123 66 228s20 205 13 298
c-6 87 -25 171 -56 254l293 -4c75 -144 101 -314 78 -510s-80 -345 -169 -447s-206 -151 -350 -146c-65 1 -123 20 -175 55s-89 84 -110 147c-97 -137 -210 -205 -340 -203c-119 3 -211 42 -274 117c-64 75 -97 184 -99 326c-2 123 17 239 55 347c40 108 99 212 178 313h315
z" />
    <glyph glyph-name="theta1" unicode="&#x3d1;" horiz-adv-x="1209" 
d="M1214 561l-106 -23l-11 -73c-15 -97 -49 -183 -103 -257c-54 -76 -122 -133 -206 -172c-82 -40 -173 -59 -270 -56c-87 2 -165 24 -234 68c-69 42 -120 101 -154 176c-33 75 -45 155 -35 242l33 213h309l-34 -215c-7 -61 4 -111 33 -152c30 -41 72 -62 127 -63
c93 -2 154 73 185 225l12 60c-112 35 -199 96 -262 186c-63 88 -90 192 -82 309l2 26c13 127 61 230 145 309s185 116 303 112c73 -1 136 -21 188 -59c51 -38 88 -90 112 -157c22 -67 29 -141 19 -222l-39 -219l86 19zM720 1048c-5 -43 -2 -82 8 -118c9 -37 32 -68 68 -94
l45 244c3 35 5 56 5 62c-3 28 -14 43 -32 45c-21 2 -40 -7 -56 -27c-17 -20 -28 -48 -35 -85z" />
    <glyph glyph-name="Upsilon1" unicode="&#x3d2;" horiz-adv-x="1247" 
d="M643 773l228 449c84 181 207 271 369 268c39 -1 93 -10 163 -27l-65 -254c-25 3 -45 5 -59 4c-50 -3 -89 -27 -118 -74l-400 -697l-76 -442h-345l83 475l-149 665c-13 42 -40 64 -81 67l-62 -3l-10 261c47 15 95 22 144 22c81 -1 147 -25 195 -71
c50 -46 84 -107 103 -184z" />
    <glyph glyph-name="omega1" unicode="&#x3d6;" horiz-adv-x="1698" 
d="M1751 860l-115 2l1 -146c-3 -99 -15 -195 -38 -290s-57 -177 -102 -246s-101 -121 -167 -154c-67 -34 -142 -50 -227 -48c-71 1 -135 21 -191 58c-55 38 -94 89 -116 154c-101 -146 -222 -217 -364 -212c-110 3 -197 36 -261 101s-101 156 -112 273
c-18 185 17 356 106 512l-125 -3l40 221h1713zM1304 571c11 83 14 180 11 289l-819 2c-81 -168 -119 -330 -112 -486c3 -89 30 -135 82 -138c101 -8 166 77 196 255l28 191h352l-28 -184c-4 -44 -6 -78 -5 -103c3 -103 39 -156 108 -158c83 -3 141 76 172 237z" />
    <glyph glyph-name="uni0402" unicode="&#x402;" horiz-adv-x="1491" 
d="M1229 1185h-437l-64 -315c73 17 143 25 210 24c72 -1 139 -11 202 -31s116 -50 160 -90c86 -79 124 -186 113 -319c-8 -99 -40 -184 -95 -255c-56 -71 -132 -125 -228 -163c-97 -37 -203 -57 -318 -58l27 255c159 7 248 73 267 198c8 57 -3 103 -32 138s-74 53 -133 56
c-63 3 -131 -2 -202 -13l-113 -612h-343l206 1185h-326l47 271h1106z" />
    <glyph glyph-name="uni0404" unicode="&#x404;" horiz-adv-x="1301" 
d="M1220 495c-10 -103 -44 -194 -102 -273c-57 -79 -134 -139 -229 -182s-198 -63 -308 -61c-100 2 -187 24 -260 67c-73 42 -131 104 -172 184c-41 82 -65 175 -70 281c-5 85 4 186 25 303s58 221 111 314s117 168 193 225c113 85 241 126 386 123c156 -3 280 -49 373 -140
s144 -219 154 -386l-341 1c3 86 -12 149 -45 191c-33 40 -87 62 -161 65c-132 5 -229 -75 -292 -240l-35 -105l385 1l-48 -271h-366c-5 -38 -7 -77 -6 -117c0 -70 16 -125 47 -165c31 -39 78 -60 140 -63c79 -3 143 17 192 61c49 42 80 104 93 183z" />
    <glyph glyph-name="uni0409" unicode="&#x409;" horiz-adv-x="2094" 
d="M1445 1456l-82 -471l138 -1c162 -1 291 -47 388 -136s139 -205 128 -347c-12 -149 -77 -270 -195 -363c-118 -92 -267 -138 -446 -138h-526l205 1185h-314l-131 -602c-49 -205 -119 -353 -210 -444c-92 -91 -209 -137 -350 -139h-120l40 270l33 2c79 7 145 47 195 119
c52 72 90 186 117 343l18 102l127 620h985zM1316 715l-77 -445l158 -2c73 1 135 24 185 68c52 43 82 99 93 168c9 59 -2 108 -33 147s-76 60 -134 63z" />
    <glyph glyph-name="uni040A" unicode="&#x40a;" horiz-adv-x="2090" 
d="M489 847h504l106 609h342l-81 -466l139 -1c163 -1 293 -48 388 -139s137 -207 126 -346c-12 -151 -77 -272 -194 -365s-266 -139 -445 -139h-527l100 577h-504l-101 -577h-342l252 1456h343zM1313 720l-78 -452l157 -2c73 1 135 24 187 69s83 102 94 171
c8 60 -3 110 -33 150c-31 39 -76 60 -135 63z" />
    <glyph glyph-name="uni040B" unicode="&#x40b;" horiz-adv-x="1495" 
d="M1187 1185h-422l-54 -259c59 9 107 12 144 11c81 0 156 -11 225 -33s128 -55 176 -100c94 -89 133 -209 116 -360l-73 -443h-342l75 444c10 77 -1 132 -32 167s-85 53 -162 56c-27 1 -79 -2 -157 -8l-122 -660h-343l206 1185h-306l47 271h1071z" />
    <glyph glyph-name="uni040F" unicode="&#x40f;" horiz-adv-x="1386" 
d="M796 269l67 -1l214 1188h344l-253 -1456h-407l-63 -360h-343l62 360h-438l252 1456h341l-206 -1186h85l1 1l344 -1v-1z" />
    <glyph glyph-name="uni0411" unicode="&#x411;" horiz-adv-x="1251" 
d="M1164 1185h-612l-40 -230l158 -1c101 -3 192 -23 270 -62c80 -39 139 -93 180 -162c40 -69 56 -149 49 -239c-11 -149 -75 -268 -193 -357c-119 -89 -266 -134 -441 -134h-533l252 1456h957zM465 685l-72 -415l157 -1c71 0 133 21 184 61c52 42 83 96 93 163
c9 56 -3 101 -34 135c-31 35 -77 53 -137 56z" />
    <glyph glyph-name="uni0414" unicode="&#x414;" horiz-adv-x="1484" 
d="M1264 -358h-309l63 358h-767l-63 -357h-316l85 627l85 -2c126 72 217 215 273 430l184 758h964l-206 -1186h152zM437 265l479 5l159 915h-298l-113 -470c-51 -193 -126 -343 -227 -450z" />
    <glyph glyph-name="uni0416" unicode="&#x416;" horiz-adv-x="2082" 
d="M1394 569h-179l-99 -569h-340l99 569h-166l-370 -569h-441l575 811l-296 644l417 1l190 -571h145l100 571h340l-99 -571h127l376 571h448l-529 -675l277 -781h-414z" />
    <glyph glyph-name="uni0417" unicode="&#x417;" horiz-adv-x="1260" 
d="M650 872c61 1 110 18 150 50c38 31 62 77 70 138c6 44 -5 79 -33 106s-68 41 -121 42s-99 -12 -136 -39c-38 -27 -61 -64 -70 -110l-342 -2c5 83 32 156 82 219c49 63 118 113 206 148c88 36 181 53 278 52c151 -3 272 -40 362 -110c89 -72 130 -170 121 -297
c-9 -140 -99 -249 -269 -328c64 -32 111 -77 140 -133c29 -58 42 -121 37 -192c-10 -151 -85 -266 -224 -345c-110 -62 -238 -92 -384 -90l-44 2c-139 10 -250 53 -331 129s-121 174 -120 293h340c0 -46 15 -83 45 -111c30 -27 73 -42 128 -43c65 -1 121 14 169 46
c47 32 75 74 83 127c19 121 -30 184 -148 188l-200 1l45 260z" />
    <glyph glyph-name="uni0418" unicode="&#x418;" horiz-adv-x="1386" 
d="M1074 1456h351l-252 -1456h-343l157 898l-653 -898h-352l253 1456h343l-157 -899z" />
    <glyph glyph-name="uni041B" unicode="&#x41b;" horiz-adv-x="1411" 
d="M1445 1456l-253 -1456h-342l205 1185h-314l-131 -602c-48 -203 -117 -350 -208 -441c-91 -92 -207 -139 -348 -142h-124l40 270l33 2c80 7 145 47 197 119c50 72 89 186 116 343l18 102l126 620h985z" />
    <glyph glyph-name="uni0423" unicode="&#x423;" horiz-adv-x="1266" 
d="M687 827l-3 -13l346 642h374l-673 -1156c-62 -113 -130 -195 -203 -246c-74 -51 -158 -78 -253 -79l-115 2l20 276l64 -6c49 -1 91 8 124 29c33 20 64 55 91 105l28 51l-327 1024l342 1z" />
    <glyph glyph-name="uni0424" unicode="&#x424;" horiz-adv-x="1674" 
d="M1122 1329l6 1c109 2 205 -25 286 -82c82 -57 142 -135 179 -236c33 -89 44 -184 34 -285c-11 -116 -48 -221 -111 -315c-63 -93 -144 -165 -244 -216c-99 -50 -207 -74 -323 -71h-19l-40 -185h-330l41 186h-5c-105 -2 -199 22 -280 74c-81 50 -142 122 -182 212
c-40 92 -55 191 -44 298c11 118 48 225 112 322c62 96 144 170 246 224c100 52 209 78 326 75h19l41 185l321 1zM412 597c7 -55 28 -99 61 -132s77 -53 131 -58l29 -2l126 648c-82 0 -152 -25 -211 -73c-59 -50 -100 -118 -123 -206c-16 -61 -20 -120 -13 -177zM1090 1051
l-124 -648c73 0 136 19 190 57c54 37 95 90 122 159s37 143 30 223c-5 60 -25 108 -59 146c-34 36 -81 57 -140 62z" />
    <glyph glyph-name="uni0426" unicode="&#x426;" horiz-adv-x="1543" 
d="M231 1456h341l-206 -1186h505l206 1186h344l-207 -1189h217l-126 -618h-324l61 351h-1063z" />
    <glyph glyph-name="uni0427" unicode="&#x427;" horiz-adv-x="1398" 
d="M1436 1456l-253 -1456h-341l103 540c-78 -16 -151 -23 -220 -22c-112 1 -210 21 -293 62c-84 41 -146 98 -185 172c-39 73 -53 160 -41 261l74 443h342l-74 -444c-10 -77 1 -133 32 -168c32 -35 86 -53 163 -55c53 -2 130 3 231 16l121 651h341z" />
    <glyph glyph-name="uni0428" unicode="&#x428;" horiz-adv-x="1930" 
d="M590 1456l-206 -1186h349l206 1186h343l-206 -1186h345l206 1186h341l-253 -1456h-1720l253 1456h342z" />
    <glyph glyph-name="uni0429" unicode="&#x429;" horiz-adv-x="2089" 
d="M590 1456l-206 -1186h349l206 1186h343l-206 -1186h345l206 1186h341l-208 -1197h210l-125 -609h-311l61 350h-1600l253 1456h342z" />
    <glyph glyph-name="uni042A" unicode="&#x42a;" horiz-adv-x="1557" 
d="M174 1456h732l-87 -501l142 -1c105 -1 198 -20 279 -58s143 -92 185 -162s59 -151 52 -243c-11 -146 -74 -264 -191 -355s-265 -136 -445 -136h-531l208 1196h-390zM773 685l-72 -415l156 -1c72 0 134 21 185 61c52 42 83 96 93 163c9 56 -3 101 -34 135
c-31 35 -77 53 -137 56z" />
    <glyph glyph-name="uni042B" unicode="&#x42b;" horiz-adv-x="1741" 
d="M510 955l158 -1c101 -3 192 -23 270 -62c80 -39 139 -93 180 -162c40 -69 56 -149 49 -239c-11 -149 -75 -268 -193 -357c-119 -89 -266 -134 -441 -134h-532l252 1456h344zM463 685l-72 -415l157 -1c71 0 133 21 184 61c52 42 83 96 93 163c9 56 -3 101 -34 135
c-31 35 -77 53 -137 56zM1527 0h-342l253 1456h341z" />
    <glyph glyph-name="uni042C" unicode="&#x42c;" horiz-adv-x="1248" 
d="M512 955l158 -1c101 -3 192 -23 270 -62c80 -39 139 -93 180 -162c40 -69 56 -149 49 -239c-11 -149 -75 -268 -193 -357c-119 -89 -266 -134 -441 -134h-532l252 1456h344zM465 685l-72 -415l157 -1c71 0 133 21 184 61c52 42 83 96 93 163c9 56 -3 101 -34 135
c-31 35 -77 53 -137 56z" />
    <glyph glyph-name="uni042D" unicode="&#x42d;" horiz-adv-x="1273" 
d="M332 493c-6 -159 61 -241 201 -246c137 -5 236 73 296 235l36 112l-401 -1l48 271h382c4 36 6 74 5 113c-5 147 -66 224 -182 229c-86 3 -153 -18 -202 -62c-49 -46 -79 -109 -92 -192l-340 -1c14 103 51 195 111 275c59 81 137 143 232 187c96 44 200 65 311 63
c97 -2 182 -25 255 -68c72 -44 129 -107 170 -189s65 -176 71 -281c6 -102 -5 -217 -35 -344c-28 -128 -75 -238 -138 -330c-63 -93 -141 -164 -234 -214c-92 -49 -196 -73 -312 -71c-159 3 -285 50 -378 143s-141 216 -144 371h340z" />
    <glyph glyph-name="uni042E" unicode="&#x42e;" horiz-adv-x="1941" 
d="M1130 -20c-149 2 -270 51 -362 148c-94 96 -146 228 -158 395l-2 38h-155l-97 -561h-342l253 1456h341l-110 -634h136c25 127 71 242 138 342c68 102 152 179 250 234c100 55 207 81 324 78c99 -2 186 -25 260 -68c75 -44 134 -107 179 -189s71 -175 78 -280
c5 -74 1 -158 -13 -253c-15 -94 -41 -184 -80 -270c-38 -85 -87 -161 -148 -226s-132 -117 -214 -156c-83 -38 -175 -56 -278 -54zM1520 942c-7 167 -71 253 -194 260c-95 5 -173 -33 -235 -112c-62 -80 -103 -198 -123 -353c-13 -96 -17 -170 -14 -223
c7 -169 72 -256 196 -261c81 -4 151 25 210 87c59 63 101 154 127 272c26 120 37 229 33 330z" />
    <glyph glyph-name="uni042F" unicode="&#x42f;" horiz-adv-x="1147" 
d="M610 0l89 511h-187l-326 -511h-388l412 635c-97 89 -139 209 -128 360c11 143 69 255 174 338s245 124 418 124l532 -1l-252 -1456h-344zM414 884c7 -78 53 -119 140 -122l188 -1l74 424l-154 2c-79 -1 -140 -25 -183 -75c-43 -48 -65 -115 -66 -199z" />
    <glyph glyph-name="uni0431" unicode="&#x431;" horiz-adv-x="1158" 
d="M695 1021c131 -3 232 -51 301 -146s98 -215 86 -362c-15 -167 -76 -298 -181 -395c-105 -96 -235 -143 -389 -140c-100 3 -185 29 -255 78s-121 118 -153 205s-42 184 -31 289l3 21v4l10 70c37 231 103 413 200 543c97 132 222 214 377 249l68 14c81 17 127 54 138 110
h266c-3 -100 -36 -179 -97 -238s-169 -102 -323 -130c-75 -13 -139 -43 -191 -89c-54 -45 -101 -114 -142 -206c96 85 200 126 313 123zM613 763c-61 2 -110 -20 -149 -65c-38 -45 -61 -108 -70 -189l-1 -21c-3 -28 -3 -56 -2 -85c1 -51 14 -91 38 -120s58 -44 103 -45
c61 -2 110 20 150 66c38 45 62 115 71 209l2 85c-3 52 -16 92 -40 121s-58 43 -102 44z" />
    <glyph glyph-name="uni0432" unicode="&#x432;" 
d="M9 0l187 1082l411 -1c145 -1 254 -26 329 -77c74 -50 109 -122 106 -217c-2 -51 -21 -97 -57 -136s-96 -74 -181 -104c68 -15 121 -43 160 -83c39 -41 57 -90 56 -147c-1 -102 -43 -180 -124 -235s-198 -82 -349 -82h-538zM415 441l-32 -183h174c83 3 132 35 145 95
c4 16 5 29 2 40c-7 29 -35 45 -82 47zM451 649l120 -1c79 3 124 32 135 87c3 17 4 32 1 43c-9 28 -38 43 -87 45l-139 1z" />
    <glyph glyph-name="uni0433" unicode="&#x433;" horiz-adv-x="841" 
d="M866 822h-413l-143 -822h-330l188 1082h744z" />
    <glyph glyph-name="uni0434" unicode="&#x434;" horiz-adv-x="1287" 
d="M49 258c69 59 123 124 161 196c40 70 70 164 92 281l64 347h820l-143 -822h158l-103 -588h-330l58 328h-567l-57 -328h-337l101 587zM433 255l282 5l98 562h-165l-14 -80c-20 -114 -46 -210 -78 -286c-33 -78 -74 -144 -123 -201z" />
    <glyph glyph-name="uni0436" unicode="&#x436;" horiz-adv-x="1802" 
d="M1157 378h-130l-66 -378h-329l66 378h-111l-246 -378h-406l425 595l-235 486l396 1l131 -389h100l68 389h329l-68 -389h87l268 389h428l-432 -507l5 5l222 -580h-389z" />
    <glyph glyph-name="uni0437" unicode="&#x437;" horiz-adv-x="1037" 
d="M514 651c35 1 67 11 94 29c27 17 45 45 52 82c11 65 -15 98 -80 101c-75 3 -121 -29 -138 -94l-332 -2c4 94 44 171 120 233c76 60 175 94 298 101l42 1c133 -3 238 -31 316 -85c76 -54 113 -128 108 -223c-2 -49 -18 -93 -48 -132c-31 -39 -81 -77 -152 -112
c48 -22 83 -54 106 -96c22 -41 32 -88 31 -140c-5 -109 -57 -192 -155 -250c-98 -59 -217 -87 -356 -84c-121 1 -220 33 -298 94c-76 61 -116 144 -117 248l325 -1c0 -67 42 -100 126 -100c39 1 73 11 102 31c29 21 47 51 54 91c13 72 -21 109 -100 112l-155 1l35 196z" />
    <glyph glyph-name="uni0438" unicode="&#x438;" horiz-adv-x="1124" 
d="M778 1082h337l-188 -1082h-330l107 609l-385 -609h-339l188 1082h331l-106 -607z" />
    <glyph glyph-name="uni043A" unicode="&#x43a;" horiz-adv-x="1149" 
d="M508 378h-104l-66 -378h-329l187 1082h330l-68 -389h85l235 389l438 -1l-413 -499l6 1l236 -583h-433z" />
    <glyph glyph-name="uni043B" unicode="&#x43b;" 
d="M1114 1082l-188 -1082h-329l143 822h-193l-84 -388c-36 -147 -89 -256 -157 -326c-70 -69 -155 -105 -257 -108h-140l34 257l30 2c89 9 152 86 189 233l121 590h831z" />
    <glyph glyph-name="uni043C" unicode="&#x43c;" horiz-adv-x="1535" 
d="M704 376l360 706h419l-188 -1082h-330l101 577l-304 -577h-219l-103 580l-101 -580h-330l187 1082h397z" />
    <glyph glyph-name="uni043D" unicode="&#x43d;" horiz-adv-x="1124" 
d="M923 0h-330l70 401h-284l-70 -401h-329l188 1082h329l-73 -422h284l73 422h330z" />
    <glyph glyph-name="uni043F" unicode="&#x43f;" horiz-adv-x="1124" 
d="M927 0h-331l143 822h-287l-143 -822h-329l188 1082h947z" />
    <glyph glyph-name="uni0442" unicode="&#x442;" horiz-adv-x="1051" 
d="M1051 824h-331l-143 -824h-331l143 824h-326l45 258h988z" />
    <glyph glyph-name="uni0444" unicode="&#x444;" horiz-adv-x="1467" 
d="M509 1103c41 -1 84 -11 129 -29l89 462h329l-90 -461c39 17 77 25 115 25c67 0 124 -18 173 -54c48 -35 84 -87 108 -156c25 -68 38 -144 39 -228c1 -43 -1 -83 -5 -120l-3 -22c-23 -171 -75 -305 -157 -402c-81 -97 -184 -143 -308 -140c-41 1 -83 10 -128 27l-83 -421
h-329l84 422c-38 -16 -78 -24 -119 -24c-93 0 -166 32 -221 96c-54 65 -86 156 -96 274l-2 43c-1 41 0 80 4 117l9 63c27 169 81 300 161 393c81 93 181 138 301 135zM358 408c-2 -61 8 -105 28 -132c22 -27 58 -39 110 -34l115 600l-36 4c-54 0 -98 -25 -133 -75
c-34 -50 -58 -129 -73 -238zM1076 654c4 129 -33 191 -112 188l-22 -2l-116 -601l39 -3c111 2 177 97 199 286z" />
    <glyph glyph-name="uni0446" unicode="&#x446;" horiz-adv-x="1233" 
d="M168 1082h329l-143 -822h287l143 822h331l-143 -824h174l-120 -579h-312l56 321h-790z" />
    <glyph glyph-name="uni0447" unicode="&#x447;" horiz-adv-x="1118" 
d="M931 0h-332l67 327c-31 -7 -60 -10 -89 -10c-157 -1 -277 35 -360 109s-118 176 -104 307l56 349h329l-57 -350c-4 -31 -4 -56 0 -76c5 -27 19 -47 42 -60c23 -12 59 -19 108 -20c25 -1 60 1 103 6l94 500h330z" />
    <glyph glyph-name="uni0448" unicode="&#x448;" horiz-adv-x="1670" 
d="M497 1082l-143 -822h245l143 822h330l-143 -822h243l143 822h330l-188 -1082h-1477l188 1082h329z" />
    <glyph glyph-name="uni0449" unicode="&#x449;" horiz-adv-x="1870" 
d="M499 1082l-143 -822h244l143 822h330l-142 -822h243l143 822h329l-143 -824h240l-120 -579h-310l56 321h-1387l188 1082h329z" />
    <glyph glyph-name="uni044A" unicode="&#x44a;" horiz-adv-x="1353" 
d="M691 785l150 -1c88 -3 165 -20 233 -52c66 -31 118 -76 152 -134c36 -57 51 -125 46 -202c-7 -120 -59 -216 -156 -288s-225 -108 -384 -108h-507l142 821h-296l46 261h626zM646 526l-47 -268l150 -1c55 1 100 15 134 39c34 26 55 59 63 101c13 81 -26 123 -117 128z" />
    <glyph glyph-name="uni044B" unicode="&#x44b;" horiz-adv-x="1704" 
d="M475 785l125 -1c145 -1 260 -36 343 -106s121 -164 114 -282c-7 -120 -59 -216 -157 -288c-99 -72 -226 -108 -382 -108h-509l187 1082h331zM431 526l-47 -268l148 -1l35 3c94 13 149 59 164 137c7 43 -1 75 -23 95c-24 20 -55 31 -95 33zM1474 0h-331l188 1082h331z" />
    <glyph glyph-name="uni044C" unicode="&#x44c;" horiz-adv-x="1132" 
d="M475 785l125 -1c145 -1 260 -36 343 -106s121 -164 114 -282c-7 -120 -59 -216 -157 -288c-99 -72 -226 -108 -382 -108h-509l187 1082h331zM431 526l-47 -268l148 -1l35 3c94 13 149 59 164 137c7 43 -1 75 -23 95c-24 20 -55 31 -95 33z" />
    <glyph glyph-name="uni044D" unicode="&#x44d;" horiz-adv-x="1023" 
d="M532 843c-41 1 -75 -11 -102 -36s-44 -62 -51 -110l-309 -1c5 80 29 151 72 214s101 111 174 145c72 34 150 50 234 48c97 -3 179 -27 247 -75c68 -46 117 -112 149 -194c30 -84 41 -177 30 -280l-2 -17c-23 -174 -86 -311 -190 -412c-103 -101 -230 -149 -381 -145
c-127 3 -225 43 -295 122c-70 78 -103 182 -99 313l308 -1c-4 -115 32 -173 108 -175c47 -2 88 13 123 46c34 33 63 88 88 167l-242 -1l33 183h222l2 72c-1 41 -12 74 -32 99s-49 37 -87 38z" />
    <glyph glyph-name="uni044E" unicode="&#x44e;" horiz-adv-x="1617" 
d="M463 682h88c53 137 126 242 221 314c95 74 207 109 338 106c146 -3 259 -55 338 -156c80 -102 112 -233 96 -393l-2 -21c-13 -109 -46 -207 -99 -292s-121 -151 -204 -196s-176 -67 -277 -64c-85 2 -162 22 -230 60c-68 37 -120 90 -156 157s-52 142 -49 225l-110 -1
l-73 -421h-330l188 1082h330zM852 434c-3 -59 7 -106 30 -142c23 -34 57 -53 103 -54c61 -2 111 21 150 70s65 123 78 224l2 21c4 57 5 97 4 122c-7 110 -52 166 -133 168c-61 2 -110 -22 -150 -71c-38 -50 -64 -126 -77 -228z" />
    <glyph glyph-name="uni044F" unicode="&#x44f;" horiz-adv-x="1131" 
d="M1090 1082l-188 -1082h-328l63 358h-116l-248 -358h-345l300 420c-49 32 -86 72 -113 120s-38 101 -35 160c4 78 29 146 74 202c46 58 108 102 187 134c79 31 165 47 258 47zM405 689c-6 -32 2 -59 23 -79c21 -22 50 -33 86 -34l160 -1l43 249l-128 1
c-49 -3 -91 -18 -124 -43s-53 -56 -60 -93z" />
    <glyph glyph-name="uni0452" unicode="&#x452;" horiz-adv-x="1131" 
d="M745 1184h-231l-51 -220c83 95 176 141 279 138c73 -1 133 -20 180 -56c48 -35 82 -85 102 -150c20 -64 25 -139 16 -224l-110 -687c-17 -134 -65 -239 -144 -314c-80 -75 -183 -112 -310 -111c-45 0 -100 6 -167 19l40 256c34 -11 67 -17 99 -17c80 2 130 58 151 167
l113 691c3 23 3 44 2 64c-5 66 -42 100 -111 102c-59 1 -111 -20 -157 -65l-138 -777h-329l206 1184h-150l34 191h149l28 161h329l-28 -161h232z" />
    <glyph glyph-name="uni0454" unicode="&#x454;" horiz-adv-x="1023" 
d="M466 239c47 -1 85 12 112 39c28 28 46 64 53 108l308 1c-4 -79 -27 -149 -71 -212c-42 -63 -101 -111 -174 -147c-74 -34 -153 -51 -238 -49c-96 3 -177 27 -244 73c-66 45 -115 110 -146 194c-31 83 -42 177 -31 280l3 23c21 171 83 307 186 407
c103 101 229 149 378 146c127 -3 226 -43 298 -122c71 -78 105 -182 101 -313h-308c3 115 -37 174 -120 176c-85 3 -146 -51 -184 -163l-20 -65l266 1l-32 -183h-245l-2 -67c3 -83 39 -125 110 -127z" />
    <glyph glyph-name="uni0459" unicode="&#x459;" horiz-adv-x="1729" 
d="M1121 1082l-55 -317l124 -1c144 -1 258 -34 342 -102c84 -66 123 -157 117 -271c-7 -121 -59 -216 -157 -286s-224 -105 -377 -105h-513l143 822h-197l-64 -297c-34 -185 -89 -319 -164 -403c-75 -85 -173 -125 -292 -122h-118l33 257l31 2c50 5 92 31 124 78
c34 47 60 124 80 232l106 513h837zM1021 506l-43 -248l148 -1c54 1 98 14 132 37c35 24 56 57 64 98c7 36 -1 64 -22 82c-22 20 -54 30 -97 31z" />
    <glyph glyph-name="uni045A" unicode="&#x45a;" horiz-adv-x="1721" 
d="M424 660h284l73 422h330l-55 -317l126 -1c148 -1 263 -36 345 -102c82 -68 119 -158 112 -271c-9 -123 -62 -219 -159 -287c-97 -70 -221 -104 -372 -104h-515l70 401h-284l-70 -401h-329l188 1082h329zM1011 506l-43 -248l149 -1c55 2 100 15 133 38c34 23 55 56 63 97
c7 36 -1 64 -22 82c-21 20 -53 30 -96 31z" />
    <glyph glyph-name="uni045B" unicode="&#x45b;" horiz-adv-x="1127" 
d="M756 1199h-247l-46 -235c81 94 174 140 279 139c109 -3 189 -42 242 -119c52 -77 71 -181 56 -312l-112 -672h-329l113 676c3 23 3 44 2 64c-5 66 -41 100 -110 102c-59 1 -112 -20 -158 -65l-138 -777h-329l208 1199h-141l33 191h141l26 146h329l-29 -146h244z" />
    <glyph glyph-name="uni045F" unicode="&#x45f;" horiz-adv-x="1124" 
d="M497 1082l-143 -822h287l143 822h331l-188 -1082h-309l-63 -360h-329l62 360h-308l188 1082h329z" />
    <glyph glyph-name="uni0460" unicode="&#x460;" horiz-adv-x="1966" 
d="M1992 1456l-164 -964c-23 -160 -89 -286 -196 -379s-239 -138 -394 -135c-71 0 -135 14 -193 41s-103 65 -135 114c-105 -106 -227 -158 -368 -155c-97 2 -183 25 -256 68c-74 44 -129 105 -164 183s-47 165 -36 262l164 965h342l-164 -966c-3 -28 -4 -56 -3 -84
c1 -48 14 -86 39 -114c24 -27 58 -42 102 -44c59 -2 108 18 146 59s63 103 75 184l164 965h340l-164 -966c-3 -27 -4 -55 -3 -83c3 -103 48 -156 137 -159c122 -5 197 76 225 242l163 966h343z" />
    <glyph glyph-name="uni0461" unicode="&#x461;" horiz-adv-x="1706" 
d="M1726 1082l-102 -599c-22 -156 -80 -280 -174 -371c-93 -92 -212 -137 -356 -134c-65 1 -122 14 -173 39s-90 59 -118 103c-95 -97 -207 -144 -334 -141c-89 1 -166 24 -230 68s-111 104 -139 180c-30 76 -38 161 -27 255l100 600h330l-99 -601l-7 -72l-1 -31
c2 -90 35 -137 98 -141c106 -6 171 75 195 244l100 601h330l-99 -601l-6 -75l-1 -27c1 -92 37 -139 106 -142c47 -2 85 16 115 55c29 39 50 102 61 190l100 600h331z" />
    <glyph glyph-name="uni0463" unicode="&#x463;" horiz-adv-x="1132" 
d="M742 1083h-214l-49 -278l125 -1c145 -1 259 -36 342 -108c83 -70 120 -166 113 -285c-8 -126 -61 -226 -159 -300c-99 -74 -225 -111 -380 -111h-510l187 1083h-135l34 191h134l51 288h330l-51 -288h216zM434 546l-50 -288l148 -1c53 1 98 16 134 43s58 65 67 112
c13 83 -26 127 -117 133z" />
    <glyph glyph-name="uni0464" unicode="&#x464;" horiz-adv-x="1778" 
d="M481 869l151 -1c61 201 150 354 268 458c117 104 257 155 418 153c159 -3 285 -51 377 -144s142 -221 150 -383l-341 1c3 86 -12 149 -44 189c-34 39 -87 60 -162 63c-130 5 -225 -72 -285 -232l-35 -105l367 1l-46 -261h-349l-7 -78c-13 -178 47 -270 182 -275
c80 -3 144 17 193 59s79 102 91 179l340 2c-10 -101 -44 -191 -103 -270s-136 -139 -232 -183c-96 -42 -199 -63 -309 -61c-111 1 -207 30 -288 85c-81 56 -140 132 -177 228c-37 95 -48 200 -33 315l-172 -1l-105 -608h-341l253 1456h340z" />
    <glyph glyph-name="uni0465" unicode="&#x465;" horiz-adv-x="1516" 
d="M432 640l93 -1c51 157 123 274 219 351c94 78 207 115 337 112c127 -3 226 -43 297 -122c72 -78 106 -182 102 -313l-308 1c3 115 -36 173 -119 175c-79 3 -137 -43 -175 -140l-23 -64l272 1l-34 -191h-253l-4 -70c-3 -91 34 -138 109 -140c48 -1 86 12 113 39
c27 28 45 64 52 108l308 1c-4 -79 -28 -151 -72 -214s-102 -112 -176 -145c-72 -34 -151 -50 -235 -48c-88 2 -165 23 -232 64c-67 40 -117 96 -150 168s-46 151 -38 238l-116 -1l-78 -449h-330l188 1082h330z" />
    <glyph glyph-name="uni0466" unicode="&#x466;" horiz-adv-x="1384" 
d="M844 415l-62 1l-78 -416h-269l80 417h-47l-204 -417h-374l744 1456h173l2 -4l5 4h194l241 -1456h-341zM571 636h238l-52 380z" />
    <glyph glyph-name="uni0467" unicode="&#x467;" horiz-adv-x="1146" 
d="M656 263l-64 1l-52 -264h-184l54 265h-45l-125 -265h-347l568 1082h356l191 -1082h-316zM456 460h171l-24 192l-6 130l-65 -162z" />
    <glyph glyph-name="uni0468" unicode="&#x468;" horiz-adv-x="1927" 
d="M463 634h288l421 822h173l1 -4l5 4h194l242 -1456h-351l-55 415l-62 1l-78 -416h-268l79 417l-47 -1l-205 -416h-373l216 412l-219 2l-71 -414h-342l253 1456h342zM1108 636h239l-54 382z" />
    <glyph glyph-name="uni0469" unicode="&#x469;" horiz-adv-x="1641" 
d="M397 459h232l328 623h356l191 -1082h-323l-30 263l-63 1l-52 -264h-183l53 265h-45l-125 -265h-349l143 261l-168 2l-44 -263h-332l188 1082h331zM952 460h171l-24 191l-6 131l-65 -162z" />
    <glyph glyph-name="uni046A" unicode="&#x46a;" horiz-adv-x="1753" 
d="M1209 788c139 -7 243 -52 314 -135s98 -193 82 -328l-53 -325h-341l54 326c9 65 1 113 -24 144s-70 48 -135 51l-51 1l-99 -522h-341l90 521l-66 1c-79 0 -140 -16 -182 -49s-68 -82 -79 -148l-54 -325h-340l52 325c20 152 79 267 176 345c97 79 239 120 425 125
l-236 660l1295 1zM931 870l207 309l-299 2z" />
    <glyph glyph-name="uni046B" unicode="&#x46b;" horiz-adv-x="1458" 
d="M1005 604c101 -17 175 -62 225 -136c48 -72 67 -165 56 -278l-28 -190h-330l31 191l5 67c0 67 -34 105 -102 116l-73 -374h-328l70 377c-58 -3 -101 -20 -131 -51c-28 -31 -48 -75 -57 -130l-32 -196h-328l29 190c17 131 62 231 137 298c75 68 177 109 307 124l-177 469
l1088 1zM731 647l147 231l-207 2z" />
    <glyph glyph-name="uni046C" unicode="&#x46c;" horiz-adv-x="2346" 
d="M578 0l53 313c15 89 42 164 81 226l-252 -4l-93 -535h-342l253 1456h341l-114 -657h736l-245 656l1294 1l-485 -668c137 -7 241 -51 311 -134c71 -82 99 -192 84 -329l-53 -325h-341l54 326c9 65 1 112 -22 144c-24 30 -68 48 -133 51l-56 2l-98 -523h-342l91 521l-66 2
c-147 0 -233 -60 -258 -181l-57 -342h-341zM1526 870l207 309l-299 2z" />
    <glyph glyph-name="uni046D" unicode="&#x46d;" horiz-adv-x="2028" 
d="M551 0l33 195c12 69 36 134 72 193l-244 -4l-67 -384h-331l188 1082h331l-81 -465h580l-185 464l1087 1l-362 -478c99 -16 174 -60 224 -133c52 -73 71 -166 59 -281l-29 -190h-330l31 192l5 67c0 66 -34 104 -102 115l-72 -374h-329l71 377c-60 -3 -104 -21 -134 -53
c-28 -34 -48 -80 -57 -140l-29 -184h-329zM1299 647l147 231l-207 2z" />
    <glyph glyph-name="uni046E" unicode="&#x46e;" horiz-adv-x="1026" 
d="M400 878c59 1 108 17 147 47s63 72 72 125c13 87 -38 132 -154 135l-250 1l47 270l217 -1c161 -3 283 -36 364 -98s119 -151 112 -267c-10 -165 -101 -283 -274 -352c69 -29 122 -70 160 -126c38 -54 55 -120 50 -196c-5 -90 -31 -168 -81 -234
c-48 -67 -115 -118 -198 -152c-84 -36 -177 -53 -280 -52l-61 1c-33 -1 -62 -11 -85 -29c-23 -17 -37 -40 -42 -69c-5 -27 0 -52 16 -73c14 -22 45 -43 91 -64l-96 -191c-99 21 -175 65 -227 130c-53 65 -76 149 -71 251c5 98 41 175 111 232c68 57 162 85 279 85l75 -1
c65 0 119 14 163 44c44 28 71 68 80 118c11 62 -2 110 -37 144s-89 51 -162 52l-149 1l47 271zM646 1795l166 132l289 6l1 -21l-352 -278h-211l-285 280v20l273 -6z" />
    <glyph glyph-name="uni046F" unicode="&#x46f;" horiz-adv-x="1034" 
d="M381 629c46 1 85 13 115 36c32 23 51 54 58 93c10 55 -26 85 -109 92l-36 2l-250 1l41 229l206 -1c327 -1 487 -96 481 -283c-2 -57 -19 -108 -52 -151s-85 -81 -157 -114c58 -22 103 -52 134 -89c32 -38 47 -82 46 -132c-1 -105 -48 -186 -140 -246
c-92 -58 -213 -88 -362 -88l-49 1c-89 -4 -140 -36 -151 -97c-11 -57 18 -103 86 -139l-91 -169c-84 30 -149 77 -195 142c-46 64 -68 137 -65 218c3 86 35 153 95 202c61 49 144 73 251 73h31c162 0 251 40 268 119c15 72 -40 110 -166 115h-180l33 187zM587 1392l166 132
l289 6l1 -21l-352 -278h-211l-285 280l-1 20l274 -6z" />
    <glyph glyph-name="uni0472" unicode="&#x472;" horiz-adv-x="1384" 
d="M617 -20c-99 2 -187 25 -263 70c-76 44 -136 107 -180 190s-70 176 -77 281c-5 73 0 159 17 259c16 101 45 195 87 282s95 162 158 225s135 111 217 143c80 34 166 49 257 47c149 -3 270 -54 362 -151s144 -226 155 -387c4 -58 3 -117 -4 -176l-6 -44
c-31 -229 -115 -412 -251 -549c-130 -130 -287 -193 -472 -190zM636 253c149 -5 259 98 328 310l24 79h-540l-7 -81c-5 -96 10 -171 43 -224c34 -53 85 -81 152 -84zM813 1202c-80 3 -149 -24 -207 -82c-57 -58 -105 -154 -142 -289l539 1l5 78c2 91 -14 161 -47 212
s-83 77 -148 80z" />
    <glyph glyph-name="uni0473" unicode="&#x473;" 
d="M44 544c21 170 84 306 190 410c107 102 237 152 390 148c96 -1 179 -25 248 -72c69 -46 120 -111 153 -195s44 -178 33 -282l-2 -21c-13 -109 -46 -207 -99 -292s-121 -151 -204 -196s-176 -67 -277 -64c-142 3 -252 52 -332 146c-78 96 -113 219 -104 370l2 27zM604 843
c-100 4 -174 -67 -223 -214l351 1c2 24 2 49 0 74c-7 89 -50 136 -128 139zM496 239c96 -4 169 63 220 201l-350 -1c-7 -131 36 -198 130 -200z" />
    <glyph glyph-name="uni0474" unicode="&#x474;" horiz-adv-x="1297" 
d="M599 395l-3 -60l21 56l304 723c102 242 252 363 450 363l43 -1l-34 -280l-32 1c-58 -3 -103 -40 -135 -112l-477 -1085h-371l-206 1456l341 2z" />
    <glyph glyph-name="uni0475" unicode="&#x475;" horiz-adv-x="1031" 
d="M437 432l-1 -93l42 122l97 264c95 256 240 383 435 381c37 -1 74 -7 109 -19l-52 -255c-27 4 -45 6 -54 5c-60 -2 -107 -42 -141 -120l-315 -717h-334l-135 1082h339z" />
    <glyph glyph-name="uni047A" unicode="&#x47a;" horiz-adv-x="1384" 
d="M686 -14l-27 -120l-189 1l28 124c-123 25 -219 86 -290 183c-70 97 -107 221 -112 371c-3 93 7 193 30 300c39 177 113 320 221 428s238 172 389 193l24 106l189 -1l-24 -103c127 -19 228 -77 303 -174c75 -98 117 -223 124 -375c4 -107 -8 -219 -36 -333
c-29 -116 -72 -216 -130 -300c-59 -86 -130 -154 -214 -206c-85 -53 -180 -84 -286 -94zM1012 920c0 75 -10 133 -30 176s-50 74 -90 93l-24 -107l-189 2l23 98c-121 -61 -200 -187 -235 -376l-17 -110l-12 -106c-4 -40 -4 -80 0 -120c8 -93 39 -158 94 -194l20 90l190 -2
l-23 -101c151 60 243 212 274 456c12 91 18 158 19 201z" />
    <glyph glyph-name="uni047B" unicode="&#x47b;" 
d="M580 1097l24 107l146 -1l-25 -109c119 -20 210 -79 271 -177s85 -219 71 -363l-2 -22c-20 -158 -76 -285 -169 -382c-93 -96 -211 -151 -356 -165l-26 -112l-145 1l26 114c-118 19 -208 76 -271 174c-63 96 -87 217 -73 361l4 30c13 101 42 192 88 271s106 142 180 189
s160 75 257 84zM570 249c47 23 83 58 109 103s46 112 59 201c9 70 12 118 11 145c-3 57 -22 99 -57 126l-21 -100l-147 2l26 107c-43 -22 -79 -55 -106 -97c-27 -44 -48 -103 -60 -180c-14 -77 -19 -135 -16 -174c3 -59 23 -101 59 -127l25 118l146 -2z" />
    <glyph glyph-name="uni047C" unicode="&#x47c;" horiz-adv-x="1967" 
d="M1427 1458c75 -4 142 -19 201 -46c60 -26 110 -62 151 -107c83 -94 116 -213 99 -358l-73 -459c-24 -160 -91 -286 -200 -378c-109 -91 -243 -135 -400 -131c-140 3 -244 50 -311 140c-105 -97 -222 -144 -353 -141c-97 2 -183 24 -257 68c-74 42 -128 103 -163 180
c-35 78 -47 165 -37 261l74 467c24 155 89 278 196 366c107 90 245 135 414 138l-30 -272c-63 0 -116 -21 -157 -62s-68 -102 -81 -183l-73 -455c-3 -28 -4 -56 -3 -83c1 -47 14 -85 38 -111c23 -28 58 -42 103 -44c120 -5 194 78 222 248l52 319h318l-52 -325l-5 -81
c0 -104 43 -158 129 -161c61 -3 111 16 153 56c40 42 67 102 80 183l74 461c4 30 6 59 5 86c-5 92 -52 142 -141 149zM1588 1693l-6 -138h-3c-39 4 -79 13 -117 26c-40 13 -79 28 -118 43s-78 28 -116 40c-37 10 -74 16 -111 16c-33 0 -61 -9 -82 -28s-35 -44 -41 -77
l-2 -19l-128 1l1 39c5 71 27 125 68 163s97 56 168 55c41 -1 81 -7 120 -20c39 -12 78 -26 117 -41s78 -29 117 -41c39 -13 83 -19 133 -19zM957 1326c51 55 81 104 90 147l18 94l166 -1l-12 -95c-10 -79 -68 -148 -174 -209z" />
    <glyph glyph-name="uni047D" unicode="&#x47d;" horiz-adv-x="1666" 
d="M1129 1104c93 -5 173 -29 241 -70s118 -98 150 -170c32 -73 43 -154 34 -245l-18 -143c-20 -157 -77 -280 -172 -369s-211 -132 -350 -128c-53 1 -102 14 -146 37c-46 24 -81 59 -106 106c-87 -99 -184 -147 -292 -144c-86 1 -160 22 -223 64s-109 100 -137 174
c-30 73 -39 155 -30 246l19 150c19 152 80 271 183 358c102 87 234 131 396 134l-29 -261c-59 0 -108 -20 -146 -61c-38 -40 -62 -97 -72 -171l-20 -150l-5 -65c-5 -103 25 -156 90 -159c77 -3 128 60 153 190l28 189h308l-19 -135l-7 -66l-2 -31c-1 -95 26 -144 83 -147
c88 -6 143 71 165 231l23 169l2 62c-2 87 -44 134 -126 141zM1395 1362l-6 -138l-7 1c-40 2 -79 10 -118 23s-78 28 -116 43c-40 15 -78 29 -115 41c-37 11 -74 17 -111 17c-69 0 -110 -35 -123 -104l-2 -20l-129 1l2 39c5 71 28 125 68 163c42 38 98 56 169 55
c41 -1 81 -7 119 -20c39 -13 78 -27 116 -42c40 -15 78 -29 117 -41s78 -18 119 -19zM774 1006c49 55 79 104 89 147l18 94l166 -1l-12 -101c-11 -75 -68 -143 -173 -203z" />
    <glyph glyph-name="uni047E" unicode="&#x47e;" horiz-adv-x="1966" 
d="M1992 1456l-164 -964c-23 -158 -88 -284 -194 -378c-105 -95 -237 -141 -395 -138c-75 1 -140 16 -197 43c-56 27 -100 65 -132 114c-107 -107 -230 -160 -367 -157c-98 3 -184 26 -258 70s-129 105 -163 183c-36 78 -47 165 -36 262l164 965h342l-164 -966
c-3 -28 -4 -56 -3 -84c1 -48 14 -86 39 -114c24 -27 58 -42 102 -44c59 -2 108 18 146 59s63 103 75 184l164 965h340l-164 -966c-3 -27 -4 -55 -3 -83c3 -103 48 -156 137 -159c122 -5 197 76 225 243l163 965h343zM715 1687l25 142h891l-23 -142h-365l-23 -127h-178
l23 127h-350z" />
    <glyph glyph-name="uni047F" unicode="&#x47f;" horiz-adv-x="1706" 
d="M1726 1082l-102 -599c-22 -156 -80 -280 -174 -371c-93 -92 -212 -137 -355 -134c-137 3 -234 51 -292 142c-95 -97 -207 -144 -334 -141c-89 1 -166 24 -230 68s-111 104 -139 180c-30 76 -38 161 -27 255l100 600h330l-99 -601l-7 -72l-1 -31c2 -90 35 -137 98 -141
c107 -6 172 75 196 244l99 601h330l-99 -601l-6 -75l-1 -27c1 -92 37 -139 106 -142c45 -2 83 15 113 53c30 36 51 101 63 192l100 600h331zM588 1315l25 142h800l-17 -142h-327l-23 -127h-177l23 127h-304z" />
    <glyph glyph-name="uni0480" unicode="&#x480;" horiz-adv-x="1209" 
d="M698 -353h-342l68 345c-121 27 -213 95 -274 202s-83 234 -65 379l47 303c29 187 101 335 216 444c114 108 253 161 418 158c156 -3 274 -48 356 -136c80 -87 118 -214 111 -379l-342 1l2 92c-2 98 -52 149 -151 152c-144 4 -234 -108 -269 -336l-46 -300
c-7 -52 -10 -96 -8 -132c3 -121 49 -184 138 -189l246 -2z" />
    <glyph glyph-name="uni0481" unicode="&#x481;" horiz-adv-x="1069" 
d="M645 -358h-329l69 349c-110 25 -192 86 -247 183c-54 96 -74 214 -60 353l2 23c12 107 44 204 96 290s119 152 201 198c82 45 173 67 274 64c127 -3 225 -43 293 -122c70 -78 103 -182 100 -313l-309 1v39c-3 87 -39 133 -107 136c-121 6 -194 -92 -220 -293l-2 -23
l-8 -81c-6 -59 -1 -106 16 -144c16 -36 44 -57 85 -61l250 -3z" />
    <glyph glyph-name="uni0482" unicode="&#x482;" horiz-adv-x="1242" 
d="M556 438l252 -172l-83 -114l-253 169l-232 -321h-190l296 409l-251 171l82 114l254 -170l268 373l-252 171l84 116l253 -170l237 327l187 1l-300 -416l255 -171l-86 -113l-250 169z" />
    <glyph glyph-name="uni0483" unicode="&#x483;" horiz-adv-x="0" 
d="M-571 1312l-23 -126l-174 1l43 238h529l19 108l173 -1l-39 -220h-528z" />
    <glyph glyph-name="uni0484" unicode="&#x484;" horiz-adv-x="0" 
d="M-730 1437c47 -1 97 6 150 22l225 76c45 14 89 21 134 20c67 -1 121 -20 159 -56c40 -36 58 -88 56 -157l-2 -40l-130 1l2 21c2 30 -3 53 -14 70s-33 26 -64 27c-61 3 -143 -15 -245 -53c-102 -37 -179 -59 -230 -64l-34 -2h-19l8 136z" />
    <glyph glyph-name="uni0485" unicode="&#x485;" horiz-adv-x="0" 
d="M-416 1514l25 138h186l-34 -187l37 -101l-75 -56z" />
    <glyph glyph-name="uni0486" unicode="&#x486;" horiz-adv-x="0" 
d="M-366 1310l-81 81l78 107l26 154h185l-29 -166z" />
    <glyph glyph-name="uni0488" unicode="&#x488;" horiz-adv-x="0" 
d="M-587 1267c4 59 24 105 61 139c36 34 84 51 145 50c57 0 104 -17 141 -51s57 -81 60 -141l-107 2c3 68 -21 102 -73 102c-57 1 -95 -32 -114 -101h-113zM-62 990c4 57 24 102 60 137c35 35 84 52 145 52c57 0 105 -17 142 -51s57 -81 60 -141l-107 2
c3 68 -21 102 -74 102c-55 0 -93 -34 -112 -101h-114zM33 486c4 59 24 105 60 139s84 51 145 50c59 0 107 -17 144 -53c36 -34 55 -81 56 -138l-106 2c3 68 -21 102 -73 102c-57 0 -96 -34 -115 -101zM-247 -33c4 58 24 104 59 138c36 34 84 51 145 51c59 0 107 -17 143 -52
c37 -35 56 -81 57 -139l-106 2c3 68 -21 102 -73 102c-57 1 -95 -32 -114 -101zM-857 -316c5 59 25 105 61 139s84 51 145 50c56 0 103 -17 141 -50c37 -33 57 -81 60 -142l-106 2c3 68 -21 102 -73 102c-58 1 -96 -32 -114 -101h-114zM-1191 990c4 59 24 106 61 140
c37 33 85 50 146 49c57 0 104 -17 141 -51s57 -81 60 -141l-107 2c3 68 -21 102 -73 102c-57 1 -95 -32 -114 -101h-114zM-1447 486c4 59 24 105 60 139s84 51 145 50c59 -1 107 -18 143 -52s55 -80 57 -139l-106 2c3 68 -21 102 -74 102c-57 1 -95 -32 -114 -101z
M-1376 -33c4 59 24 105 60 139s84 51 145 50c58 0 105 -17 142 -51s56 -81 59 -140l-107 2c3 68 -21 102 -73 102c-57 0 -95 -34 -114 -101z" />
    <glyph glyph-name="uni0489" unicode="&#x489;" horiz-adv-x="0" 
d="M-473 -57l15 -21l-168 -335h-105l124 353zM-439 1123l-16 19l168 336h105l-125 -352zM115 633l9 9l316 -129l-16 -88l-319 67zM-1032 431l-8 -9l-316 130l16 87l318 -67zM-47 1002l3 19l328 151l65 -81l-300 -188zM-876 21l-2 -20l-329 -151l-65 82l302 188zM-855 860
l-18 1l-97 342l63 56l152 -305zM-71 161l20 -1l96 -341l-64 -58l-150 305z" />
    <glyph glyph-name="uni048A" unicode="&#x48a;" horiz-adv-x="1570" 
d="M1074 1456h351l-252 -1456h-343l157 898l-653 -898h-352l253 1456h343l-157 -899zM1234 1850c-4 -95 -42 -171 -112 -228c-72 -57 -159 -84 -264 -81c-99 1 -180 30 -242 85c-63 56 -95 131 -96 224l222 -2c-1 -83 37 -125 116 -128c42 -1 76 10 102 34
c27 22 44 54 51 94zM1146 -425l-165 79l92 163c35 63 56 120 65 170l41 233h264l-35 -208c-30 -178 -117 -324 -262 -437z" />
    <glyph glyph-name="uni048B" unicode="&#x48b;" horiz-adv-x="1334" 
d="M778 1082h337l-188 -1082h-330l107 609l-385 -609h-339l188 1082h331l-106 -607zM1062 1540c-4 -95 -42 -171 -112 -228c-72 -57 -159 -84 -264 -81c-99 1 -180 30 -242 85c-63 56 -95 131 -96 224l222 -2c-1 -83 37 -125 116 -128c42 -1 76 10 102 34c27 22 44 54 51 94
zM902 -425l-165 79l92 163c35 63 56 120 65 170l41 233h264l-35 -208c-30 -178 -117 -324 -262 -437z" />
    <glyph glyph-name="uni048D" unicode="&#x48d;" horiz-adv-x="1132" 
d="M774 1265h-215l-80 -460l125 -1c145 -1 259 -36 342 -108c83 -70 120 -166 113 -285c-8 -126 -61 -226 -159 -300c-99 -74 -225 -111 -380 -111h-510l219 1265h-135l33 191h135l26 146h330l-26 -146h216zM434 546l-50 -288l148 -1c53 1 98 16 134 43s58 65 67 112
c13 83 -26 127 -117 133z" />
    <glyph glyph-name="uni048E" unicode="&#x48e;" horiz-adv-x="1249" 
d="M430 494l-86 -494h-342l252 1456l522 -1c163 0 291 -45 384 -135c94 -91 135 -208 122 -351c-14 -150 -87 -270 -219 -359l88 -136l-90 -71l-99 144c-93 -35 -194 -53 -303 -53h-229zM881 854c42 67 60 131 53 193c-4 40 -19 72 -44 97c-25 24 -59 37 -101 40l-239 1
l-73 -420h206c32 1 66 6 101 14l-100 158l92 72z" />
    <glyph glyph-name="uni048F" unicode="&#x48f;" horiz-adv-x="1125" 
d="M855 107l73 -123l-96 -70l-68 113c-64 -32 -128 -47 -193 -46c-95 3 -171 39 -227 110l-98 -507h-329l260 1498l304 1l-17 -103c73 84 158 125 257 122c105 -1 187 -39 247 -113c59 -74 91 -175 95 -304c1 -43 0 -84 -4 -125l-4 -28c-25 -183 -91 -325 -200 -425z
M735 673c0 109 -37 165 -111 170c-69 3 -127 -26 -173 -86l-78 -430c20 -56 63 -85 130 -86c25 0 58 9 97 27l-88 155l94 69l69 -112c23 51 39 104 48 158c8 59 12 104 12 135z" />
    <glyph glyph-name="uni0490" unicode="&#x490;" horiz-adv-x="1120" 
d="M1191 1196l-16 1l-1 -12h-624l-206 -1185h-342l252 1456h644l68 388l320 1z" />
    <glyph glyph-name="uni0491" unicode="&#x491;" horiz-adv-x="942" 
d="M924 822h-470l-143 -822h-329l188 1082h470l56 317h329z" />
    <glyph glyph-name="uni0494" unicode="&#x494;" horiz-adv-x="1256" 
d="M1162 1185h-614l-61 -348h131c113 0 212 -24 294 -72c84 -48 144 -117 182 -205c38 -90 51 -191 38 -306c-20 -185 -90 -333 -208 -444c-120 -110 -270 -167 -452 -171l25 246c99 4 175 48 229 131c53 83 80 195 79 334c-1 69 -18 124 -49 164c-32 39 -78 60 -137 63
h-177l-100 -577h-342l252 1456h957z" />
    <glyph glyph-name="uni0495" unicode="&#x495;" horiz-adv-x="1087" 
d="M867 822h-413l-35 -152c173 0 306 -44 398 -131s132 -204 121 -350c-7 -101 -47 -193 -121 -276s-173 -150 -297 -201l-136 213c73 43 126 85 159 126s54 88 63 140c19 131 -38 204 -171 219l-44 3l-80 -413h-329l188 1082h743z" />
    <glyph glyph-name="uni0496" unicode="&#x496;" horiz-adv-x="2247" 
d="M1394 569h-179l-99 -569h-340l99 569h-166l-370 -569h-441l575 811l-296 644l417 1l190 -571h145l100 571h340l-99 -571h127l376 571h448l-529 -675l277 -781h-414zM2064 -356h-329l100 579h329z" />
    <glyph glyph-name="uni0497" unicode="&#x497;" horiz-adv-x="1929" 
d="M1157 378h-130l-66 -378h-329l66 378h-111l-246 -378h-406l425 595l-235 486l396 1l131 -389h100l68 389h329l-68 -389h87l268 389h428l-432 -507l5 5l222 -580h-389zM1742 -356h-329l100 579h329z" />
    <glyph glyph-name="uni049A" unicode="&#x49a;" horiz-adv-x="1526" 
d="M610 576h-167l-101 -576h-342l252 1456h343l-98 -563h121l369 563h432l-517 -688l299 -768h-391zM1299 -356h-329l100 579h329z" />
    <glyph glyph-name="uni049B" unicode="&#x49b;" horiz-adv-x="1358" 
d="M508 378h-104l-66 -378h-329l187 1082h330l-68 -389h85l235 389l438 -1l-413 -499l6 1l236 -583h-433zM1123 -356h-329l100 579h329z" />
    <glyph glyph-name="uni049C" unicode="&#x49c;" horiz-adv-x="1355" 
d="M1512 1456l-495 -653l4 4l263 -807h-427l-128 571l-40 1l-44 -226h-169l45 227h-70l-105 -573h-343l252 1456h344l-105 -573h70l51 262h169l-53 -262h14l320 573h447z" />
    <glyph glyph-name="uni049D" unicode="&#x49d;" horiz-adv-x="1245" 
d="M1318 1082l-362 -520l169 -562h-414l-45 379l-44 1l-34 -165h-144l34 166h-68l-72 -381h-328l187 1082h330l-74 -392h68l37 186h145l-39 -186h46l173 392h435z" />
    <glyph glyph-name="uni04A0" unicode="&#x4a0;" horiz-adv-x="1655" 
d="M987 576h-167l-100 -576h-343l208 1195h-462l46 261h803l-98 -563h121l370 563h431l-517 -688l299 -768h-391z" />
    <glyph glyph-name="uni04A1" unicode="&#x4a1;" horiz-adv-x="1451" 
d="M821 378h-103l-66 -378h-330l142 821h-374l45 261h705l-68 -389h84l234 389l439 -1l-413 -499l7 1l235 -583h-433z" />
    <glyph glyph-name="uni04A2" unicode="&#x4a2;" horiz-adv-x="1586" 
d="M1184 0h-340l105 608h-499l-106 -608h-342l252 1456h343l-101 -578h500l100 578h341zM1360 -356h-329l100 579h329z" />
    <glyph glyph-name="uni04A3" unicode="&#x4a3;" horiz-adv-x="1336" 
d="M923 0h-330l70 401h-284l-70 -401h-329l188 1082h329l-73 -422h284l73 422h330zM1101 -356h-329l100 579h329z" />
    <glyph glyph-name="uni04A4" unicode="&#x4a4;" horiz-adv-x="1984" 
d="M496 878h500l100 578h947l-45 -260l-591 1l-5 2l-218 -1199h-340l105 608h-499l-106 -608h-342l252 1456h343z" />
    <glyph glyph-name="uni04A5" unicode="&#x4a5;" horiz-adv-x="1408" 
d="M426 660h284l73 422h649l-45 -260h-319l-143 -822h-330l70 401h-284l-70 -401h-329l188 1082h329z" />
    <glyph glyph-name="uni04A6" unicode="&#x4a6;" horiz-adv-x="2107" 
d="M1335 834h133c113 0 212 -24 294 -72c84 -48 144 -116 182 -206c38 -88 51 -190 38 -305c-20 -185 -90 -333 -208 -443c-120 -111 -270 -168 -452 -172l25 246c99 4 175 48 229 131c53 83 80 195 79 334c-1 69 -18 124 -49 163c-32 40 -78 61 -137 64h-179l-100 -574
h-342l205 1185h-505l-206 -1185h-342l252 1456h1191z" />
    <glyph glyph-name="uni04A7" unicode="&#x4a7;" horiz-adv-x="1722" 
d="M1038 680h21c182 0 321 -43 417 -128c97 -86 140 -204 129 -354c-7 -99 -47 -190 -120 -274c-73 -85 -171 -152 -294 -203l-140 214c69 40 121 81 157 123c34 43 56 90 65 143c11 70 -2 124 -39 161s-95 57 -173 60l-51 2l-82 -424h-330l143 822h-287l-143 -822h-329
l188 1082l938 1z" />
    <glyph glyph-name="uni04A8" unicode="&#x4a8;" horiz-adv-x="1672" 
d="M1473 -11c-150 7 -279 30 -387 68c-125 -54 -247 -80 -367 -77c-127 1 -241 31 -343 92c-103 60 -178 141 -228 244c-48 102 -65 215 -49 338l34 223c27 179 98 323 213 433c115 108 256 165 425 169l-33 -282c-59 -2 -110 -30 -151 -85s-70 -133 -86 -234l-35 -225
c-7 -50 -8 -98 -1 -144c9 -74 37 -133 85 -177c46 -44 108 -67 185 -70h26l24 1c-41 77 -70 154 -89 233c-18 79 -21 162 -10 249l25 172c25 172 83 309 174 412s199 152 326 149c77 -2 145 -23 203 -62s104 -96 136 -170c34 -73 52 -155 55 -245c1 -48 -1 -95 -6 -140
l-20 -140c-28 -183 -105 -338 -232 -465c51 -5 101 -8 150 -8zM1003 742c-17 -131 13 -244 88 -340c76 85 124 191 144 319l25 188l5 39c8 52 11 97 8 134c-5 74 -35 113 -91 116c-81 5 -130 -68 -148 -220z" />
    <glyph glyph-name="uni04A9" unicode="&#x4a9;" horiz-adv-x="1336" 
d="M1180 -35c-138 5 -252 23 -343 54c-93 -28 -181 -41 -262 -38c-103 1 -197 25 -281 72s-146 111 -187 191c-41 81 -56 171 -46 270l13 105c18 145 75 261 170 348s216 133 362 137l-32 -268c-75 -21 -124 -90 -145 -207l-17 -116c-4 -31 -5 -60 -2 -89
c9 -93 59 -150 150 -171c-10 44 -16 88 -18 131c-3 43 -1 87 5 131l23 168c18 129 63 232 134 308c72 76 159 113 260 111c90 -3 162 -38 217 -104c55 -68 86 -153 93 -256c2 -37 1 -72 -2 -107l-25 -184c-21 -119 -86 -222 -195 -311c45 -4 90 -6 135 -6zM763 496
c-8 -71 4 -137 37 -199c70 49 111 114 124 194l21 169l3 44c3 38 -1 69 -10 93s-24 37 -44 38c-54 2 -90 -51 -107 -159z" />
    <glyph glyph-name="uni04B2" unicode="&#x4b2;" horiz-adv-x="1362" 
d="M684 974l306 482h406l-518 -736l285 -720h-379l-160 491l-314 -491h-409l530 748l-276 708h375zM1179 -356h-329l100 579h329z" />
    <glyph glyph-name="uni04B3" unicode="&#x4b3;" horiz-adv-x="1105" 
d="M538 786l199 296h356l-369 -542l198 -540h-328l-114 318l-211 -318h-360l388 570l-189 512h331zM917 -356h-329l100 579h329z" />
    <glyph glyph-name="uni04B4" unicode="&#x4b4;" horiz-adv-x="1779" 
d="M426 1195h-302l46 261h937l-45 -261h-294l-161 -925h506l206 1186h343l-206 -1189h217l-127 -618h-325l62 351h-1064z" />
    <glyph glyph-name="uni04B5" unicode="&#x4b5;" horiz-adv-x="1388" 
d="M277 821h-189l45 261h688l-45 -261h-170l-97 -561h287l142 822h330l-143 -824h174l-120 -579h-310l56 321h-790z" />
    <glyph glyph-name="uni04B6" unicode="&#x4b6;" horiz-adv-x="1578" 
d="M1436 1456l-253 -1456h-341l103 540c-78 -16 -151 -23 -220 -22c-112 1 -210 21 -293 62c-84 41 -146 98 -185 172c-39 73 -53 160 -41 261l74 443h342l-74 -444c-10 -77 1 -133 32 -168c32 -35 86 -53 163 -55c53 -2 130 3 231 16l121 651h341zM1351 -356h-329l100 579
h329z" />
    <glyph glyph-name="uni04B7" unicode="&#x4b7;" horiz-adv-x="1333" 
d="M931 0h-332l67 327c-31 -7 -60 -10 -89 -10c-157 -1 -277 35 -360 109s-118 176 -104 307l56 349h329l-57 -350c-4 -31 -4 -56 0 -76c5 -27 19 -47 42 -60c23 -12 59 -19 108 -20c25 -1 60 1 103 6l94 500h330zM1099 -356h-329l100 579h329z" />
    <glyph glyph-name="uni04B8" unicode="&#x4b8;" horiz-adv-x="1359" 
d="M589 1456l-75 -446l-5 -71c0 -75 34 -123 103 -144l56 280h168l-56 -288l161 18l120 651h342l-252 -1456h-343l102 540c-46 -9 -100 -15 -163 -18l-48 -232h-168l49 234c-141 17 -248 69 -321 156c-73 88 -102 199 -87 333l74 443h343z" />
    <glyph glyph-name="uni04B9" unicode="&#x4b9;" horiz-adv-x="1130" 
d="M941 0h-330l64 328l-64 -8l-32 -160h-168l37 165c-111 17 -196 62 -254 134s-81 163 -69 274l56 349h329l-61 -351c-5 -37 -7 -62 -6 -76c3 -27 15 -48 36 -63l50 249h168l-51 -267l62 9l91 499h330z" />
    <glyph glyph-name="uni04BA" unicode="&#x4ba;" horiz-adv-x="1416" 
d="M27 0l253 1456h342l-102 -540c82 15 155 22 218 21c113 -1 210 -21 293 -61s144 -97 183 -170c40 -74 54 -162 43 -263l-74 -443h-341l74 444c10 77 -1 133 -32 168s-85 53 -162 55c-53 2 -130 -3 -232 -16l-120 -651h-343z" />
    <glyph glyph-name="uni04BC" unicode="&#x4bc;" horiz-adv-x="1491" 
d="M819 -22c-125 1 -237 28 -333 83c-98 55 -167 130 -209 225s-52 202 -30 321l6 31c-85 22 -148 70 -191 146c-42 74 -60 174 -55 299l213 -1l-3 -56c-2 -67 18 -115 60 -146c28 119 75 225 141 316c67 91 148 161 244 210c95 49 200 72 313 69c94 -2 176 -24 245 -65
c70 -42 124 -103 163 -184s60 -172 63 -274c1 -56 -2 -112 -9 -169l-29 -178l-821 1c-9 -49 -11 -93 -5 -133c8 -61 34 -108 78 -142c43 -34 103 -52 178 -54c115 -3 243 15 383 55l19 -285c-74 -43 -183 -65 -327 -68zM949 1178c-79 2 -147 -23 -204 -74
c-57 -52 -99 -126 -126 -223h487l7 34c6 33 8 64 6 95c-5 53 -21 93 -51 122c-28 29 -68 44 -119 46z" />
    <glyph glyph-name="uni04BD" unicode="&#x4bd;" horiz-adv-x="1202" 
d="M682 -20c-90 1 -173 22 -248 63s-132 98 -172 169c-38 71 -55 151 -48 238c-83 21 -147 67 -190 138c-44 70 -64 162 -61 277l188 -1l-2 -62c0 -68 28 -116 83 -145c51 146 124 257 220 335c97 76 212 113 345 110c92 -1 171 -25 237 -70c66 -46 114 -109 142 -190
c30 -80 38 -170 27 -270l-21 -137l-643 1c-1 -56 14 -102 43 -138c30 -36 74 -55 133 -57c95 -3 182 34 259 110l137 -183c-40 -59 -99 -106 -178 -140c-79 -33 -162 -49 -251 -48zM775 844c-46 1 -87 -13 -121 -44c-36 -30 -67 -82 -95 -155h329l6 30c4 23 5 44 3 65
c-9 67 -49 102 -122 104z" />
    <glyph glyph-name="uni04C3" unicode="&#x4c3;" horiz-adv-x="1318" 
d="M876 818c124 -25 217 -90 280 -192c63 -104 86 -229 71 -378c-13 -121 -49 -228 -109 -321c-58 -93 -137 -166 -234 -217s-207 -78 -328 -81l29 256c93 4 167 45 221 125c53 78 81 188 82 328c0 68 -15 122 -44 162c-30 41 -74 62 -132 65l-267 1l-99 -566h-343l252 1456
h344l-100 -572h75l368 572h449z" />
    <glyph glyph-name="uni04C4" unicode="&#x4c4;" horiz-adv-x="1169" 
d="M812 585c79 -38 138 -94 178 -168c39 -74 55 -161 48 -262c-7 -98 -47 -189 -120 -273s-173 -152 -299 -203l-136 213c69 40 121 81 157 124c34 42 56 89 65 142c11 63 1 114 -29 153s-77 61 -141 66l-131 1l-65 -378h-329l187 1082h329l-68 -389h78l242 389h438z" />
    <glyph glyph-name="uni04C5" unicode="&#x4c5;" horiz-adv-x="1586" 
d="M1445 1456l-253 -1456h-342l205 1185h-314l-131 -602c-48 -203 -117 -350 -208 -441c-91 -92 -207 -139 -348 -142h-124l40 270l33 2c80 7 145 47 197 119c50 72 89 186 116 343l18 102l126 620h985zM1162 -425l-165 79l92 163c35 63 56 120 65 170l41 233h264l-35 -208
c-30 -178 -117 -324 -262 -437z" />
    <glyph glyph-name="uni04C6" unicode="&#x4c6;" horiz-adv-x="1334" 
d="M1114 1082l-188 -1082h-329l143 822h-193l-84 -388c-36 -147 -89 -256 -157 -326c-70 -69 -155 -105 -257 -108h-140l34 257l30 2c89 9 152 86 189 233l121 590h831zM902 -425l-165 79l92 163c35 63 56 120 65 170l41 233h264l-35 -208c-30 -178 -117 -324 -262 -437z
" />
    <glyph glyph-name="uni04C7" unicode="&#x4c7;" horiz-adv-x="1408" 
d="M595 1456l-105 -606h505l105 606h343l-250 -1463c-17 -136 -66 -243 -149 -319c-82 -78 -187 -115 -314 -114c-53 1 -111 8 -172 19l43 266c33 -10 65 -15 96 -15c83 0 134 58 154 174l98 576h-506l-101 -580h-342l252 1456h343z" />
    <glyph glyph-name="uni04C8" unicode="&#x4c8;" 
d="M499 1082l-73 -422h284l73 422h330l-186 -1097c-17 -131 -64 -235 -143 -311s-182 -114 -309 -114c-51 0 -107 6 -166 17l37 258c40 -11 73 -17 98 -16c82 0 133 59 153 177l68 405h-284l-70 -401h-329l188 1082h329z" />
    <glyph glyph-name="uni04C9" unicode="&#x4c9;" horiz-adv-x="1581" 
d="M1184 0h-340l105 608h-499l-106 -608h-342l252 1456h343l-101 -578h500l100 578h341zM1158 -425l-165 79l92 163c35 63 56 120 65 170l41 233h264l-35 -208c-30 -178 -117 -324 -262 -437z" />
    <glyph glyph-name="uni04CA" unicode="&#x4ca;" horiz-adv-x="1331" 
d="M923 0h-330l70 401h-284l-70 -401h-329l188 1082h329l-73 -422h284l73 422h330zM900 -425l-165 79l92 163c35 63 56 120 65 170l41 233h264l-35 -208c-30 -178 -117 -324 -262 -437z" />
    <glyph glyph-name="uni04CD" unicode="&#x4cd;" horiz-adv-x="1926" 
d="M698 1456l139 -1010l488 1010h456l-252 -1456h-344l62 357l148 658l-510 -1015h-227l-165 1053l-92 -730l-57 -323h-342l252 1456h444zM1503 -425l-165 79l92 163c35 63 56 120 65 170l41 233h264l-35 -208c-30 -178 -117 -324 -262 -437z" />
    <glyph glyph-name="uni04CE" unicode="&#x4ce;" horiz-adv-x="1702" 
d="M704 376l360 706h419l-188 -1082h-330l101 577l-304 -577h-219l-103 580l-101 -580h-330l187 1082h397zM1270 -425l-165 79l92 163c35 63 56 120 65 170l41 233h264l-35 -208c-30 -178 -117 -324 -262 -437z" />
    <glyph glyph-name="uni04D8" unicode="&#x4d8;" horiz-adv-x="1397" 
d="M737 1476c135 -2 252 -31 351 -86s170 -133 216 -234c44 -101 59 -216 42 -345l-25 -170c-19 -128 -63 -244 -132 -347c-69 -104 -155 -183 -257 -238c-103 -54 -211 -80 -325 -77c-123 3 -226 33 -311 91c-84 58 -144 139 -180 244c-36 104 -45 223 -28 356l29 177
l889 -1c15 104 -2 184 -54 242c-50 56 -128 86 -232 89c-131 3 -265 -16 -404 -57l-22 286c79 43 193 66 342 69zM630 275c77 -2 144 22 201 73s104 126 140 225l-553 -1l-8 -34c-7 -40 -8 -76 -1 -108c13 -60 47 -103 103 -130c34 -16 73 -24 118 -25z" />
    <glyph glyph-name="uni04E0" unicode="&#x4e0;" horiz-adv-x="1154" 
d="M813 1183l-574 2l48 271h966l-41 -238l-392 -351c93 -28 163 -83 210 -164c48 -81 68 -177 59 -288c-7 -87 -35 -164 -87 -230c-50 -66 -121 -117 -210 -154c-90 -37 -189 -54 -298 -53c-143 3 -257 43 -342 121s-126 180 -123 306h339c-1 -47 12 -85 37 -112
s62 -42 111 -43c60 -1 112 14 157 48c45 32 71 75 78 126c6 37 7 70 3 101c-15 97 -78 148 -190 152l-142 1l37 211z" />
    <glyph glyph-name="uni04E1" unicode="&#x4e1;" horiz-adv-x="1156" 
d="M757 820l-591 2l46 260h967l-39 -229l-399 -361c95 -25 167 -79 216 -160s70 -178 61 -291c-7 -89 -37 -167 -89 -233c-52 -67 -123 -118 -214 -154c-91 -35 -186 -52 -286 -49c-143 3 -256 43 -340 121c-84 79 -125 180 -122 304h327c-1 -50 12 -90 38 -118
c27 -30 65 -45 116 -46c60 -1 114 15 161 49s75 79 84 134c11 76 2 137 -29 183c-31 45 -85 70 -164 73l-143 1l36 206z" />
    <glyph glyph-name="uni04FA" unicode="&#x4fa;" horiz-adv-x="1210" 
d="M1254 1185h-614l-206 -1185h-342l252 1456h957zM740 651h-710l33 191h711zM790 297l-50 -311c-17 -131 -65 -235 -144 -312s-183 -114 -311 -113c-47 0 -103 6 -166 18l41 256c35 -12 68 -17 98 -16c79 0 129 55 150 166l51 312h331z" />
    <glyph glyph-name="uni04FB" unicode="&#x4fb;" horiz-adv-x="917" 
d="M941 822h-413l-143 -822h-330l188 1082h744zM686 475h-710l33 191h711zM693 288l-50 -311c-17 -131 -65 -235 -144 -312s-183 -114 -311 -113c-47 0 -103 6 -166 18l41 256c35 -12 68 -17 98 -16c79 0 129 55 150 166l51 312h331z" />
    <glyph glyph-name="uni04FC" unicode="&#x4fc;" horiz-adv-x="1452" 
d="M684 974l306 482h406l-518 -736l285 -720h-379l-160 491l-314 -491h-409l530 748l-276 708h375zM1382 297l-50 -311c-17 -131 -65 -235 -144 -312s-183 -114 -311 -113c-47 0 -103 6 -166 18l41 256c35 -12 68 -17 98 -16c79 0 129 55 150 166l51 312h331z" />
    <glyph glyph-name="uni04FD" unicode="&#x4fd;" horiz-adv-x="1194" 
d="M538 786l199 296h356l-369 -542l198 -540h-328l-114 318l-211 -318h-360l388 570l-189 512h331zM1120 297l-50 -311c-17 -131 -65 -235 -144 -312s-183 -114 -311 -113c-47 0 -103 6 -166 18l41 256c35 -12 68 -17 98 -16c79 0 129 55 150 166l51 312h331z" />
    <glyph glyph-name="uni0500" unicode="&#x500;" horiz-adv-x="1248" 
d="M872 986l82 470h342l-252 -1456l-500 1c-101 3 -192 25 -271 66s-139 98 -179 171c-39 72 -55 155 -47 248c8 99 41 187 99 263s134 135 227 176s195 62 306 62zM748 270l78 446l-159 1c-70 -1 -131 -23 -182 -65s-82 -97 -93 -166c-10 -65 2 -117 36 -158
c30 -35 72 -54 127 -57z" />
    <glyph glyph-name="uni0502" unicode="&#x502;" horiz-adv-x="1893" 
d="M606 1c-101 3 -192 25 -270 65c-80 42 -139 98 -178 170c-40 72 -56 155 -49 249c8 99 40 186 97 262s132 135 226 177s197 63 308 63l192 -1l82 470h343l-214 -1188h52c69 3 126 38 169 104c44 68 73 173 87 316l5 72c3 83 -4 156 -20 219l325 -2
c15 -70 23 -143 23 -218c0 -245 -54 -433 -160 -565c-108 -130 -255 -195 -444 -194zM808 270l78 446l-158 1c-71 -1 -133 -23 -185 -65c-52 -43 -83 -98 -94 -166c-9 -60 1 -110 33 -150c30 -41 75 -62 134 -65z" />
    <glyph glyph-name="uni0503" unicode="&#x503;" horiz-adv-x="1697" 
d="M73 533c21 174 74 313 159 418s193 155 326 152c87 -3 157 -41 212 -115l109 572h329l-200 -1174l-1 -44c0 -63 23 -97 68 -100c47 -4 89 15 126 58c37 42 65 108 84 197l7 37c11 67 18 134 19 201s-6 133 -19 200l314 -2c11 -67 17 -133 20 -199
c5 -151 -16 -284 -64 -398c-46 -115 -115 -204 -205 -266c-90 -64 -193 -94 -309 -92c-94 2 -169 19 -226 50c-57 32 -95 77 -115 134c-49 -67 -97 -115 -145 -144c-49 -29 -100 -42 -154 -41c-104 1 -186 39 -246 113c-59 75 -91 174 -95 299c-1 39 1 87 6 144zM741 782
c-29 40 -69 61 -120 62c-65 1 -117 -30 -155 -93c-40 -63 -64 -169 -73 -316c-8 -127 29 -193 112 -196c55 -2 109 20 163 66l5 69z" />
    <glyph glyph-name="uni0504" unicode="&#x504;" horiz-adv-x="1570" 
d="M563 394c5 58 -2 103 -23 134c-21 32 -53 50 -96 53l-277 2l48 275l187 -1c82 0 146 17 194 50c46 33 74 81 83 142c6 42 -4 74 -30 95c-26 22 -72 34 -137 36l-344 1l49 275l308 -1c111 -2 206 -20 283 -54s134 -81 170 -141c35 -60 50 -131 45 -213
c-5 -80 -37 -149 -95 -206c-57 -57 -146 -105 -266 -144c83 -20 144 -56 186 -107c40 -51 58 -116 53 -195l-7 -71v-21c0 -31 10 -48 29 -51c65 -13 119 26 164 115s68 212 71 369c1 67 -6 133 -19 199l328 -2c9 -67 16 -133 19 -199c6 -152 -16 -285 -64 -399
c-50 -114 -122 -203 -218 -265c-97 -64 -206 -94 -329 -92c-106 1 -187 33 -244 95s-82 146 -75 252z" />
    <glyph glyph-name="uni0505" unicode="&#x505;" horiz-adv-x="1282" 
d="M733 274l-1 -33c-2 -36 13 -58 44 -67c65 8 110 64 135 167c20 83 28 164 25 243c-3 53 -11 105 -25 157l313 -2c11 -52 20 -104 27 -156c12 -106 0 -208 -36 -305c-36 -98 -92 -174 -169 -227s-165 -80 -264 -79c-129 0 -227 21 -292 62s-96 102 -93 181l11 76
c2 17 2 33 0 48s-12 25 -29 32l-293 2l41 243l161 -1c82 3 130 37 145 102c7 31 3 55 -10 73c-13 17 -35 27 -66 29l-272 1l40 262l224 -1c132 -1 236 -28 313 -81c77 -54 112 -131 107 -232c-2 -49 -17 -92 -44 -132c-27 -38 -74 -75 -140 -110c51 -15 90 -42 117 -79
c26 -37 37 -83 34 -137z" />
    <glyph glyph-name="uni0506" unicode="&#x506;" horiz-adv-x="1226" 
d="M98 558l43 260l258 -1c67 0 123 16 167 49c46 33 73 79 83 140c9 56 -1 101 -27 134c-28 34 -69 52 -126 55l-328 1l37 260l278 -1c160 -1 285 -39 376 -116s132 -181 123 -312c-5 -75 -30 -141 -76 -195c-44 -56 -115 -104 -210 -146c69 -26 118 -69 148 -129
c31 -60 42 -130 33 -211l-11 -84h251l-33 -203c-29 -179 -117 -326 -263 -442l-166 80c9 19 34 62 74 131s68 126 85 172l-243 -1c-25 29 -39 71 -42 124c-3 32 0 76 7 133l14 89c4 30 4 58 1 83c-13 82 -64 125 -154 129z" />
    <glyph glyph-name="uni0507" unicode="&#x507;" horiz-adv-x="1180" 
d="M778 -394l-167 79l24 46l60 103c36 61 62 117 77 166l-276 -2c-6 25 -8 51 -6 78l8 77l10 64c11 91 -28 140 -117 147l-288 2l35 217l252 -1c47 1 87 13 120 36c34 22 54 51 61 87c6 33 -1 61 -21 82s-48 33 -84 36l-316 1l33 258l276 -1c133 -1 242 -31 327 -93
c84 -60 123 -146 118 -255c-3 -55 -21 -103 -52 -145c-31 -43 -78 -81 -139 -116c85 -45 124 -120 117 -223l243 2l-36 -219c-13 -82 -43 -160 -89 -235s-103 -138 -170 -191z" />
    <glyph glyph-name="uni0508" unicode="&#x508;" horiz-adv-x="1922" 
d="M1054 1181h-288l-134 -606c-48 -201 -118 -346 -209 -437c-91 -90 -208 -136 -349 -138h-119l40 270l33 2c79 7 144 47 194 119c51 72 90 187 118 345l18 100l127 620h958l-181 -1066l-2 -42c0 -62 21 -94 64 -95c69 -6 122 36 162 127c38 90 59 208 60 355
c1 67 -6 133 -19 200l329 -2c10 -67 16 -133 19 -199c5 -155 -17 -289 -65 -404c-48 -114 -117 -202 -208 -264s-193 -92 -307 -89c-127 3 -225 41 -293 113c-67 74 -94 174 -81 301z" />
    <glyph glyph-name="uni0509" unicode="&#x509;" horiz-adv-x="1735" 
d="M760 817h-164l-62 -292c-34 -183 -89 -317 -164 -402c-76 -85 -174 -126 -293 -123h-117l33 257l30 2c89 9 152 84 187 227l122 596h802l-117 -696c-2 -17 -2 -33 0 -50l4 -23c12 -46 40 -70 85 -71c55 -3 99 31 132 100c33 70 52 168 57 293l1 48c0 63 -7 126 -20 189
l313 -2c11 -63 18 -125 22 -188c9 -133 -8 -255 -51 -364s-106 -194 -190 -254c-85 -59 -181 -88 -289 -86c-133 1 -235 39 -305 112c-71 73 -100 172 -87 297z" />
    <glyph glyph-name="uni050A" unicode="&#x50a;" horiz-adv-x="1976" 
d="M1440 1456l-178 -1067l-2 -41c0 -60 21 -92 62 -95c62 -5 112 30 151 104s62 181 69 320l2 58c1 67 -6 133 -19 200l329 -2c10 -67 16 -133 19 -199c5 -155 -17 -289 -64 -402c-47 -114 -117 -202 -207 -264c-92 -63 -195 -93 -310 -91c-124 1 -220 39 -287 112
s-96 174 -87 302l28 189h-501l-101 -580h-341l252 1456h342l-105 -606h501l105 606h342z" />
    <glyph glyph-name="uni050B" unicode="&#x50b;" horiz-adv-x="1644" 
d="M667 417l-306 -2l-72 -415h-330l188 1082h330l-71 -404h295l71 404h329l-116 -697c-2 -16 -2 -32 -1 -49c2 -27 11 -50 26 -66c15 -18 36 -26 62 -27c53 -3 96 28 129 93c33 64 53 156 60 276l2 71c0 63 -7 126 -20 189l313 -2c11 -63 18 -125 21 -188
c7 -136 -10 -258 -53 -366c-42 -109 -105 -192 -189 -252c-84 -58 -180 -88 -288 -87c-129 1 -230 39 -302 113c-72 75 -100 173 -84 296z" />
    <glyph glyph-name="uni050C" unicode="&#x50c;" horiz-adv-x="1282" 
d="M594 -21c-128 2 -240 37 -335 104s-160 158 -195 272c-23 74 -28 155 -17 242l39 256c19 123 62 231 129 327c67 94 153 168 258 221s218 78 340 77c133 -3 249 -32 346 -89l-84 -256c-79 47 -172 71 -277 72c-91 1 -171 -31 -240 -97c-69 -65 -112 -152 -129 -260
l-40 -252c-5 -40 -5 -80 0 -121c9 -67 33 -121 73 -161s91 -60 154 -61c83 -2 148 27 197 85c49 60 71 154 66 283c-2 57 -8 113 -17 168l329 -2l17 -166c10 -135 -10 -251 -59 -346s-123 -169 -222 -221s-210 -77 -333 -75z" />
    <glyph glyph-name="uni050D" unicode="&#x50d;" horiz-adv-x="1077" 
d="M546 242c47 0 82 16 104 48c22 31 32 82 29 153l-8 96l313 -1l12 -95c8 -97 -8 -181 -48 -253c-40 -70 -98 -124 -173 -160c-75 -37 -160 -54 -255 -52c-100 3 -188 27 -264 74c-75 46 -132 110 -168 192c-38 82 -51 173 -42 273l4 36c19 167 86 300 199 401
s248 150 404 149c113 -1 206 -24 278 -69l-72 -255c-63 42 -137 63 -223 63c-68 0 -126 -28 -173 -83s-76 -127 -87 -215l-3 -26c-9 -80 3 -146 33 -198c32 -52 78 -78 140 -78z" />
    <glyph glyph-name="uni050E" unicode="&#x50e;" horiz-adv-x="1406" 
d="M525 1181h-397l48 275h1119l-48 -275h-381l-132 -791l-2 -42c-1 -25 4 -47 14 -65c12 -18 28 -28 49 -30c65 -5 118 35 159 121s62 206 65 361c1 67 -5 133 -18 200l326 -2c11 -67 17 -133 20 -199c5 -153 -17 -286 -65 -402c-48 -114 -117 -203 -208 -265
c-90 -62 -193 -92 -308 -90c-124 1 -220 39 -287 112s-96 174 -87 302z" />
    <glyph glyph-name="uni050F" unicode="&#x50f;" horiz-adv-x="1271" 
d="M357 820h-258l46 262h882l-46 -262h-295l-72 -434c-2 -16 -2 -32 0 -49c5 -61 34 -92 87 -94c61 -1 107 31 139 97c32 67 44 144 35 231c-5 46 -15 91 -30 135l312 -2c32 -111 44 -202 36 -272c-16 -138 -72 -248 -167 -332c-96 -82 -212 -123 -348 -122
c-130 1 -230 38 -300 110c-71 72 -101 172 -92 299z" />
    <glyph glyph-name="uni0510" unicode="&#x510;" horiz-adv-x="1288" 
d="M48 400c9 167 114 285 313 354c-58 34 -103 77 -134 129s-46 108 -43 169c4 85 31 160 80 224c49 63 122 113 218 150c97 36 205 53 325 51c145 -3 263 -43 354 -119c91 -77 137 -177 137 -301h-339c0 47 -15 83 -45 109c-30 24 -72 38 -125 39c-71 2 -131 -12 -180 -41
s-78 -69 -87 -119c-9 -53 1 -95 30 -124s74 -45 135 -47l221 -1l-45 -260l-185 1c-81 0 -147 -17 -196 -52c-50 -35 -80 -86 -89 -154c-7 -50 11 -89 52 -118s95 -43 160 -43c61 -1 114 12 159 41c46 28 74 67 85 116l342 1c-9 -139 -75 -246 -197 -323
c-113 -71 -249 -105 -406 -103c-109 2 -208 21 -294 57c-88 37 -152 86 -192 149c-42 63 -59 134 -54 215z" />
    <glyph glyph-name="uni0512" unicode="&#x512;" horiz-adv-x="1680" 
d="M1445 1456l-253 -1456h-342l205 1185h-314l-131 -602c-48 -203 -117 -350 -208 -441c-91 -92 -207 -139 -348 -142h-124l40 270l33 2c80 7 145 47 197 119c50 72 89 186 116 343l18 102l126 620h985zM1568 297l-50 -311c-17 -131 -65 -235 -144 -312s-183 -114 -311 -113
c-47 0 -103 6 -166 18l41 256c35 -12 68 -17 98 -16c79 0 129 55 150 166l51 312h331z" />
    <glyph glyph-name="uni0513" unicode="&#x513;" horiz-adv-x="1429" 
d="M1114 1082l-188 -1082h-329l143 822h-193l-84 -388c-36 -147 -89 -256 -157 -326c-70 -69 -155 -105 -257 -108h-140l34 257l30 2c89 9 152 86 189 233l121 590h831zM1307 297l-50 -311c-17 -131 -65 -235 -144 -312s-183 -114 -311 -113c-47 0 -103 6 -166 18l41 256
c35 -12 68 -17 98 -16c79 0 129 55 150 166l51 312h331z" />
    <glyph glyph-name="glyph369" horiz-adv-x="771" 
d="M474 1183l154 312l206 2v-25l-270 -317l-92 -1zM232 1495l165 -1c-15 -80 -22 -128 -23 -144c-2 -50 16 -91 53 -123l-85 -90c-47 27 -80 63 -100 110s-28 96 -23 149z" />
    <glyph glyph-name="uni2000" unicode="&#x2000;" horiz-adv-x="1023" 
 />
    <glyph glyph-name="uni2001" unicode="&#x2001;" horiz-adv-x="2036" 
 />
    <glyph glyph-name="uni2002" unicode="&#x2002;" horiz-adv-x="1023" 
 />
    <glyph glyph-name="uni2003" unicode="&#x2003;" horiz-adv-x="2036" 
 />
    <glyph glyph-name="uni2004" unicode="&#x2004;" horiz-adv-x="686" 
 />
    <glyph glyph-name="uni2005" unicode="&#x2005;" horiz-adv-x="516" 
 />
    <glyph glyph-name="uni2006" unicode="&#x2006;" horiz-adv-x="348" 
 />
    <glyph glyph-name="uni2007" unicode="&#x2007;" 
 />
    <glyph glyph-name="uni2008" unicode="&#x2008;" horiz-adv-x="553" 
 />
    <glyph glyph-name="uni2009" unicode="&#x2009;" horiz-adv-x="415" 
 />
    <glyph glyph-name="uni2009.locl" horiz-adv-x="258" 
 />
    <glyph glyph-name="uni200A" unicode="&#x200a;" horiz-adv-x="213" 
 />
    <glyph glyph-name="uni200B" unicode="&#x200b;" horiz-adv-x="0" 
 />
    <glyph glyph-name="uni2010" unicode="&#x2010;" horiz-adv-x="903" 
d="M714 497h-585l45 261h585z" />
    <glyph glyph-name="uni2011" unicode="&#x2011;" horiz-adv-x="903" 
d="M714 497h-585l45 261h585z" />
    <glyph glyph-name="endash" unicode="&#x2013;" horiz-adv-x="1238" 
d="M1162 578h-1026l55 264h1026z" />
    <glyph glyph-name="emdash" unicode="&#x2014;" horiz-adv-x="1505" 
d="M1445 578h-1368l73 264h1368z" />
    <glyph glyph-name="underscoredbl" unicode="&#x2017;" horiz-adv-x="884" 
d="M701 -417h-878l27 151h878zM747 -151h-878l27 151h878z" />
    <glyph glyph-name="quoteleft" unicode="&#x2018;" horiz-adv-x="506" 
d="M431 1577l149 -83c-29 -47 -56 -93 -80 -138c-23 -46 -40 -95 -50 -147l-29 -167h-240l25 161c11 74 38 143 79 207c41 63 90 119 146 167z" />
    <glyph glyph-name="quoteright" unicode="&#x2019;" horiz-adv-x="492" 
d="M298 999l-149 83c41 65 71 118 89 160c20 43 33 86 42 131l28 163h240l-24 -157c-22 -143 -97 -269 -226 -380z" />
    <glyph glyph-name="quotesinglbase" unicode="&#x201a;" horiz-adv-x="549" 
d="M88 -311l-149 83c65 105 105 202 120 291l32 186h252l-29 -180c-23 -141 -98 -268 -226 -380z" />
    <glyph glyph-name="quotereversed" unicode="&#x201b;" horiz-adv-x="430" 
d="M474 1536l-28 -165c-7 -52 -8 -102 -3 -150c5 -49 17 -97 38 -145l-143 -76c-47 53 -83 114 -106 180c-23 68 -31 131 -24 192l25 164h241z" />
    <glyph glyph-name="quotedblleft" unicode="&#x201c;" horiz-adv-x="859" 
d="M438 1577l149 -83c-29 -47 -56 -93 -79 -138c-24 -46 -41 -95 -51 -147l-29 -167h-240l25 161c11 74 38 143 79 207c41 63 90 119 146 167zM778 1577l149 -83c-29 -47 -56 -93 -79 -138c-24 -46 -41 -95 -51 -147l-29 -167h-240l25 161c11 74 38 143 79 207
c41 63 90 119 146 167z" />
    <glyph glyph-name="quotedblright" unicode="&#x201d;" horiz-adv-x="865" 
d="M312 999l-149 83c41 65 71 118 89 160c20 43 33 86 42 131l28 163h240l-24 -157c-22 -143 -97 -269 -226 -380zM663 999l-149 83c41 65 70 118 90 160c18 43 32 86 41 131l28 163h240l-24 -157c-22 -143 -97 -269 -226 -380z" />
    <glyph glyph-name="quotedblbase" unicode="&#x201e;" horiz-adv-x="860" 
d="M91 -330l-155 82c63 106 103 204 120 294l38 223h252l-33 -200c-26 -157 -100 -290 -222 -399zM432 -330l-157 82c69 114 111 208 128 281l42 236h253l-34 -201c-26 -151 -103 -284 -232 -398z" />
    <glyph glyph-name="dagger" unicode="&#x2020;" horiz-adv-x="1065" 
d="M1042 812h-318l-127 -812h-329l127 812h-314l42 270h314l59 374h329l-59 -374h319z" />
    <glyph glyph-name="daggerdbl" unicode="&#x2021;" horiz-adv-x="1167" 
d="M967 0h-318l-66 -416h-329l65 416h-314l41 260h313l88 562h-313l41 260h312l59 374h330l-59 -374h319l-41 -260h-318l-88 -562h319z" />
    <glyph glyph-name="bullet" unicode="&#x2022;" horiz-adv-x="744" 
d="M156 756c4 75 30 136 77 181s108 68 182 68c70 -1 126 -23 169 -67c42 -42 63 -100 63 -172l-1 -39c-4 -73 -30 -131 -77 -176s-108 -66 -182 -65c-69 1 -125 23 -167 66c-44 43 -65 98 -65 166z" />
    <glyph glyph-name="twodotenleader" unicode="&#x2025;" horiz-adv-x="1095" 
d="M49 152c-1 51 16 93 52 126s79 50 129 50c49 0 91 -15 126 -46c35 -30 53 -69 54 -118c1 -50 -16 -92 -51 -126c-35 -33 -79 -50 -130 -50s-93 15 -127 46s-52 70 -53 118zM523 152c-1 51 16 93 52 126s79 50 129 50c49 0 91 -15 126 -46c35 -30 53 -69 54 -118
c1 -50 -16 -92 -51 -126c-35 -33 -79 -50 -130 -50s-93 15 -127 46s-52 70 -53 118z" />
    <glyph glyph-name="ellipsis" unicode="&#x2026;" horiz-adv-x="1549" 
d="M49 152c-1 51 16 93 52 126s79 50 129 50c49 0 91 -15 126 -46c35 -30 53 -69 54 -118c1 -50 -16 -92 -51 -126c-35 -33 -79 -50 -130 -50s-93 15 -127 46s-52 70 -53 118zM523 152c-1 51 16 93 52 126s79 50 129 50c49 0 91 -15 126 -46c35 -30 53 -69 54 -118
c1 -50 -16 -92 -51 -126c-35 -33 -79 -50 -130 -50s-93 15 -127 46s-52 70 -53 118zM996 152c-1 51 16 93 52 126s79 50 129 50c49 0 91 -15 126 -46c35 -30 53 -69 54 -118c1 -50 -16 -92 -51 -126c-35 -33 -79 -50 -130 -50s-93 15 -127 46s-52 70 -53 118z" />
    <glyph glyph-name="uni2027" unicode="&#x2027;" horiz-adv-x="593" 
d="M115 623c-1 26 4 49 13 70s22 39 39 53c17 16 36 27 59 36c22 8 45 12 70 12c23 0 46 -4 68 -10c21 -8 40 -18 58 -32c16 -13 30 -30 40 -50s15 -42 16 -67c1 -26 -4 -49 -14 -70c-9 -21 -22 -39 -39 -53c-17 -16 -36 -27 -58 -36c-22 -8 -45 -12 -70 -12
c-24 0 -47 4 -69 10c-21 8 -40 18 -57 32c-17 13 -30 30 -40 50c-10 19 -15 42 -16 67z" />
    <glyph glyph-name="perthousand" unicode="&#x2030;" horiz-adv-x="1923" 
d="M1088 659c97 -3 167 -37 210 -102c68 68 145 101 231 100c85 -1 155 -30 209 -85c55 -55 80 -127 76 -215l-6 -78c-8 -87 -44 -160 -108 -217s-143 -85 -238 -84c-97 3 -168 37 -211 101c-67 -67 -144 -100 -230 -99c-85 1 -155 30 -209 86c-55 56 -80 127 -76 214l5 67
c7 95 44 171 110 228s145 85 237 84zM518 1477c89 -3 160 -32 212 -89c54 -57 78 -128 74 -213l-7 -86c-10 -85 -47 -155 -110 -211c-63 -55 -140 -82 -230 -79c-81 1 -147 30 -197 87c-51 57 -74 128 -70 213l5 63c7 96 41 173 102 230c61 58 134 86 221 85zM407 111
l-154 87l878 1125l153 -86zM946 278c-3 -30 2 -57 17 -80s36 -36 64 -37c72 -3 114 40 126 128l10 70c3 35 -2 64 -17 85c-14 21 -35 32 -63 32c-31 1 -58 -9 -81 -32c-24 -23 -39 -52 -45 -87zM1388 278c-3 -33 3 -60 18 -82s36 -34 62 -35c71 -3 113 37 126 119l10 79
c3 37 -2 65 -16 85s-35 31 -64 32c-31 1 -58 -9 -82 -32c-23 -23 -38 -52 -44 -87zM381 1095c-3 -35 2 -63 16 -83c14 -22 35 -32 64 -32c32 0 59 11 81 33s36 51 42 86l11 78c3 33 -2 61 -15 83c-13 23 -35 35 -65 36c-31 1 -58 -9 -81 -32s-38 -52 -44 -89z" />
    <glyph glyph-name="guilsinglleft" unicode="&#x2039;" horiz-adv-x="641" 
d="M326 499l155 -382l-187 -1l-205 389l1 20l322 390h221z" />
    <glyph glyph-name="guilsinglright" unicode="&#x203a;" horiz-adv-x="611" 
d="M321 914l204 -387l-1 -22l-322 -390h-222l307 415l-154 383z" />
    <glyph glyph-name="fraction" unicode="&#x2044;" horiz-adv-x="885" 
d="M94 111l-153 87l877 1126l154 -87z" />
    <glyph glyph-name="uni2074" unicode="&#x2074;" horiz-adv-x="755" 
d="M671 1000l87 1l-34 -177h-76l-28 -157h-220l28 157h-322l12 160l409 471l222 2zM333 1004l128 -3l40 195l-21 -26z" />
    <glyph glyph-name="uni207F" unicode="&#x207f;" horiz-adv-x="835" 
d="M390 1457v-126c63 91 140 136 230 136c80 -1 140 -29 180 -83c39 -54 55 -129 47 -225l-82 -504h-223l71 429l5 59c5 85 -22 128 -83 129c-52 2 -98 -22 -139 -71l-96 -546h-225l139 801z" />
    <glyph glyph-name="lira" unicode="&#x20a4;" horiz-adv-x="1202" 
d="M817 468l-223 2l-4 -22c-15 -71 -49 -131 -102 -182l596 4l-47 -270h-1039l48 269l87 -2c49 18 82 59 98 123l16 79l-166 -1l31 170h149l15 102h-147l30 169h142l13 122c15 139 67 248 158 328s204 119 341 116c131 -3 233 -42 308 -117s111 -179 108 -311l-322 1
c3 103 -33 156 -109 158c-80 2 -128 -61 -144 -190l-13 -107h253l-30 -169h-244l-14 -102h241z" />
    <glyph glyph-name="uni20A6" unicode="&#x20a6;" horiz-adv-x="1645" 
d="M1478 1003h188l-28 -160h-188l-30 -170h189l-28 -160h-188l-89 -513h-333l-194 513h-223l-89 -513h-343l89 513h-187l28 160h187l30 170h-188l28 160h187l79 453h333l171 -453h257l79 453h341zM1002 673l71 -2l33 173l-155 -1zM581 673h135l-62 170l-37 1z" />
    <glyph glyph-name="peseta" unicode="&#x20a7;" horiz-adv-x="1760" 
d="M1684 848h-172l-85 -496l-2 -45c2 -38 28 -58 77 -60h43l43 4l-24 -243c-59 -19 -118 -27 -178 -26c-100 1 -176 30 -228 87c-51 57 -72 137 -63 242l88 537h-62c-55 -116 -133 -204 -234 -262c-101 -60 -219 -88 -354 -87l-66 2l-95 -501h-351l253 1456l390 -1
c139 -3 253 -39 342 -107c88 -67 135 -157 141 -268h69l55 271h328l-47 -269h173zM505 781h53c61 1 114 21 158 61c46 38 73 90 82 153c7 53 -3 95 -30 125c-28 31 -68 48 -120 51l-64 2z" />
    <glyph glyph-name="uni20A8" unicode="&#x20a8;" horiz-adv-x="2193" 
d="M624 514h-190l-90 -514h-342l252 1456l514 -1c165 0 292 -39 380 -115c90 -78 129 -183 120 -316c-7 -105 -38 -192 -91 -262c-53 -68 -128 -123 -224 -163l196 -582v-17h-365zM480 785l200 -2c55 0 102 13 142 40c41 27 70 63 87 109c17 47 22 92 15 135
c-13 74 -61 113 -142 117l-232 1zM1761 310c9 44 -25 77 -102 99l-71 18c-116 31 -201 74 -255 129s-79 121 -76 197c3 104 49 189 139 253c88 66 197 97 325 96c127 -1 231 -34 309 -97c80 -63 120 -149 121 -256l-328 1c3 85 -35 128 -113 128c-33 0 -64 -10 -93 -30
c-29 -19 -46 -45 -51 -78c-11 -54 36 -91 143 -111c93 -22 164 -47 215 -77c51 -28 89 -64 116 -107s39 -94 37 -154c-2 -65 -23 -124 -64 -175s-99 -92 -177 -123c-76 -31 -160 -45 -250 -43c-78 1 -150 17 -218 49c-66 32 -119 75 -156 131c-38 54 -58 118 -59 189l306 -2
c1 -96 49 -143 144 -142c41 0 75 9 104 27c29 19 47 45 54 78z" />
    <glyph glyph-name="uni20A9" unicode="&#x20a9;" horiz-adv-x="1691" 
d="M1115 1223h154l71 233h344l-83 -233h150l-28 -160h-178l-39 -110h198l-28 -160h-225l-280 -793h-354l14 553l-178 -553h-353l-6 793h-222l28 160h194l-2 110h-173l28 160h145l-1 233h335l-12 -233h151l72 233h288zM1100 951l92 2l28 110l-102 2zM594 951l91 2l29 110
l-100 2zM1103 795l-9 -163l55 164zM598 796l-13 -162l54 163z" />
    <glyph glyph-name="uni20AA" unicode="&#x20aa;" horiz-adv-x="1837" 
d="M975 1080c129 -4 220 -39 273 -106c53 -66 72 -168 57 -305l-47 -299h-332l50 301c3 26 4 48 2 67c-6 53 -46 81 -121 83l-396 1l-143 -822h-329l188 1082zM427 0l124 714h329l-79 -454l362 -2c65 -1 114 10 147 34c32 25 53 65 64 121l114 669h329l-112 -669
c-17 -129 -93 -231 -227 -303c-134 -74 -307 -110 -520 -110h-531z" />
    <glyph glyph-name="Euro" unicode="&#x20ac;" horiz-adv-x="1160" 
d="M872 508h-299c-21 -168 53 -253 220 -256c54 -1 113 8 178 29l15 -273c-89 -19 -172 -27 -250 -26c-107 2 -201 26 -284 70c-82 46 -142 108 -180 188c-38 79 -50 169 -36 270l-171 -2l29 160h159l22 122h-161l29 159l151 -1c49 171 133 302 252 394
c119 90 265 135 440 134c66 -1 144 -12 234 -32l-71 -270c-51 20 -103 31 -156 34c-174 4 -292 -83 -354 -260l310 1l-28 -159h-302l-22 -122h303z" />
    <glyph glyph-name="uni20B1" unicode="&#x20b1;" horiz-adv-x="1505" 
d="M513 494l-86 -494h-343l135 775h-150l30 160l143 -3l19 62l-156 -3l30 160h149l53 305l546 -1c121 -3 223 -32 307 -87c83 -54 136 -127 158 -218l205 1l-31 -160l-147 4l-11 -33l-13 -31l165 4l-30 -160h-176c-117 -187 -306 -281 -566 -281h-231zM1018 961l11 33h-426
l-19 -62l422 -1zM623 1147l343 6c-19 19 -50 29 -93 31l-238 6zM764 764c21 0 54 4 97 13l-296 6l-10 -26z" />
    <glyph glyph-name="uni20B9" unicode="&#x20b9;" horiz-adv-x="1062" 
d="M1077 1246l-198 1c13 -55 18 -109 14 -162l211 1l-91 -209l-135 -1c-37 -99 -87 -177 -152 -234c-64 -57 -150 -100 -257 -130l310 -494v-18h-360l-360 563l31 179l207 -2c53 1 98 14 135 38c36 24 68 58 96 101l-448 -3l91 210h376c-13 62 -59 95 -139 98l-273 1
l110 271h923z" />
    <glyph glyph-name="uni20BA" unicode="&#x20ba;" horiz-adv-x="1219" 
d="M1162 761l-7 -73c-14 -132 -55 -254 -123 -366c-69 -111 -156 -197 -260 -257c-106 -60 -219 -89 -340 -88c-119 0 -232 8 -341 23l102 634l-156 -41l41 232l155 42l17 97l-155 -41l40 232l155 42l45 259h342l-29 -159l168 45l-41 -232l-166 -46l-18 -97l168 45l-41 -232
l-167 -46l-89 -483c95 4 172 45 232 123c61 77 99 185 116 323l6 64h346z" />
    <glyph glyph-name="uni20BC" unicode="&#x20bc;" horiz-adv-x="1388" 
d="M891 855c100 -33 181 -92 245 -177c62 -85 100 -185 113 -300c8 -72 7 -144 -2 -216l-26 -162h-329l30 185l8 82c10 131 -15 230 -75 297l-105 -564h-329l107 570c-115 -87 -189 -219 -220 -394l-30 -176h-328l26 161c29 187 95 341 198 463c103 123 232 201 388 235
l47 223h329z" />
    <glyph glyph-name="uni20BD" unicode="&#x20bd;" horiz-adv-x="1451" 
d="M825 169h-303l-30 -169h-343l30 169h-194l49 270l187 -3l19 61l-200 -3l49 271h193l120 691l520 -1c161 0 288 -44 382 -133s136 -204 126 -347c-10 -139 -68 -253 -172 -339c-106 -88 -241 -135 -407 -142l-37 -1l-232 4l-19 -61l309 3zM624 765l192 -1
c61 0 114 12 157 37s75 61 94 108s25 95 17 142c-7 41 -23 72 -49 95s-59 35 -100 37l-238 1z" />
    <glyph glyph-name="uni2105" unicode="&#x2105;" horiz-adv-x="1464" 
d="M754 1069c-4 -83 -34 -149 -91 -198s-129 -73 -216 -72c-85 1 -152 30 -201 85c-50 56 -72 128 -67 215l5 65c7 97 41 174 100 230c59 58 134 85 224 84c84 -1 152 -27 202 -76c52 -49 78 -115 79 -197l-209 1c-3 61 -27 91 -71 91c-27 0 -51 -11 -70 -32
s-33 -51 -40 -89l-12 -79l-1 -36c0 -53 19 -79 58 -79c24 0 44 8 61 24s29 36 36 61zM1059 657c93 -3 166 -32 219 -88c52 -56 75 -127 70 -212l-6 -77c-9 -94 -46 -168 -110 -223c-63 -55 -141 -81 -233 -78c-89 1 -160 30 -215 85c-55 56 -79 128 -74 216l6 74
c7 91 42 164 106 220c62 57 142 84 237 83zM921 276c-3 -30 3 -56 17 -79c16 -23 37 -35 64 -36c72 -3 114 41 127 132l9 65c3 35 -2 64 -16 84c-14 22 -35 33 -64 34c-31 1 -59 -10 -83 -34c-24 -23 -39 -52 -44 -85zM376 111l-153 87l878 1125l153 -86z" />
    <glyph glyph-name="uni2113" unicode="&#x2113;" horiz-adv-x="1008" 
d="M641 -23c-130 6 -239 36 -326 89s-140 127 -159 222c-9 41 -8 88 1 140l5 24c-47 -9 -105 -14 -175 -15l17 189c49 -1 107 2 175 10l65 358c21 151 72 271 154 358c83 87 186 129 311 126c100 -3 180 -37 239 -102c60 -66 87 -151 80 -254l-4 -44
c-10 -103 -58 -200 -144 -291s-203 -170 -352 -237l-8 -40c-6 -34 -8 -64 -5 -90c6 -79 59 -121 160 -127zM555 790c103 91 164 187 183 288l7 44c2 24 -1 44 -9 60c-9 16 -22 25 -39 26c-42 3 -71 -38 -87 -124z" />
    <glyph glyph-name="uni2116" unicode="&#x2116;" horiz-adv-x="2008" 
d="M1816 420h-570l26 147h570zM1316 1100c10 111 50 201 120 271c71 70 156 104 255 101c97 -3 173 -39 227 -108c56 -69 79 -155 72 -257l-4 -44c-10 -113 -50 -205 -120 -277c-69 -70 -155 -105 -257 -102c-95 3 -170 38 -225 105c-54 67 -78 152 -72 253zM1484 971
c3 -43 16 -77 38 -102s51 -37 88 -38c51 -2 96 17 132 57c38 40 61 95 72 165c6 58 8 101 6 128c-3 43 -16 77 -37 103c-21 25 -51 39 -88 41c-53 1 -99 -19 -137 -62c-37 -43 -60 -97 -68 -162c-6 -60 -8 -103 -6 -130zM1026 0h-355l-179 898l-156 -898h-333l252 1456h356
l180 -896l156 896h332z" />
    <glyph glyph-name="trademark" unicode="&#x2122;" horiz-adv-x="1269" 
d="M1111 1225l-143 -312h-83l-35 350l-62 -350h-144l95 543h171l39 -354l175 354h171l-95 -543l-145 1zM656 1340h-117l-74 -423h-165l74 423h-126l20 116h409z" />
    <glyph glyph-name="estimated" unicode="&#x212e;" horiz-adv-x="1262" 
d="M937 92c-115 -77 -238 -114 -369 -111c-89 1 -168 27 -237 78s-121 119 -157 205c-34 85 -48 175 -39 268c10 101 45 197 104 288s131 161 217 211c84 50 172 74 263 71c87 -3 163 -28 227 -76c64 -47 112 -112 144 -195c33 -83 46 -172 40 -268l-4 -49h-750l-62 -330
c59 -69 137 -104 233 -107c112 -4 241 36 388 121zM739 1008c-91 2 -189 -38 -295 -121l-52 -278h521l54 288c-28 35 -62 61 -101 81c-40 18 -82 29 -127 30z" />
    <glyph glyph-name="oneeighth" unicode="&#x215b;" horiz-adv-x="1580" 
d="M498 646h-218l91 529l-177 -36l31 177l376 116l25 1zM384 111l-153 87l877 1126l154 -87zM1456 583c-2 -75 -47 -136 -135 -183c65 -41 96 -99 95 -174c-1 -51 -15 -94 -42 -130c-28 -35 -66 -62 -115 -82c-49 -18 -103 -27 -164 -26c-91 2 -163 23 -215 63
c-53 40 -78 93 -76 160c2 83 54 150 155 201c-55 41 -82 93 -81 156c1 73 31 130 88 172c58 43 130 63 215 62c82 0 149 -20 201 -59c51 -39 76 -93 74 -160zM1201 248c4 23 -1 40 -16 50c-15 11 -33 16 -54 16c-24 0 -47 -7 -67 -20c-22 -13 -34 -33 -39 -58
c-4 -23 1 -40 15 -52c13 -13 31 -19 52 -19c25 0 49 7 70 23c21 14 34 35 39 60zM1237 565c5 40 -13 60 -54 60c-21 0 -40 -6 -57 -19c-16 -13 -26 -30 -31 -51c-4 -19 -1 -35 9 -47s25 -18 44 -18c22 0 42 7 58 21c18 14 28 32 31 54z" />
    <glyph glyph-name="threeeighths" unicode="&#x215c;" horiz-adv-x="1728" 
d="M370 1134h82c34 1 62 10 84 26c21 16 34 37 39 63c3 19 -2 35 -15 45c-13 12 -32 17 -55 17c-45 3 -76 -14 -93 -50l-227 -1c5 71 35 128 91 168c57 42 129 61 217 60c94 -2 168 -23 223 -62c54 -40 80 -93 78 -158c-2 -78 -56 -139 -161 -183c79 -27 119 -84 119 -170
c-1 -75 -35 -134 -102 -177c-66 -44 -149 -65 -248 -63c-86 1 -156 25 -212 71c-54 45 -83 106 -84 183l215 -1c5 -49 36 -75 95 -76c31 0 58 8 81 24s37 37 42 63c9 49 -19 75 -84 78h-96zM511 111l-153 87l877 1126l154 -87zM1607 583c-2 -75 -47 -136 -135 -183
c65 -41 96 -99 95 -174c-1 -51 -15 -94 -43 -130c-27 -35 -65 -62 -114 -82c-49 -18 -103 -27 -164 -26c-91 2 -163 23 -216 63c-52 40 -77 93 -75 160c2 83 54 150 155 201c-55 41 -82 93 -81 156c1 73 31 130 89 172c57 43 129 63 214 62c82 0 149 -20 200 -59
c52 -39 77 -93 75 -160zM1352 248c4 23 -1 40 -16 50c-15 11 -33 16 -54 16c-24 0 -46 -7 -68 -20c-20 -13 -33 -33 -38 -58c-4 -23 1 -40 14 -52c14 -13 32 -19 53 -19c25 0 49 7 70 23c21 14 34 35 39 60zM1388 565c5 40 -13 60 -54 60c-21 0 -40 -6 -56 -19
c-17 -13 -27 -30 -32 -51c-4 -19 -1 -35 9 -47s25 -18 44 -18c22 0 41 7 59 21c16 14 27 32 30 54z" />
    <glyph glyph-name="fiveeighths" unicode="&#x215d;" horiz-adv-x="1703" 
d="M172 1052l125 404h503l-30 -170l-320 1l-53 -129c33 17 72 26 117 27c74 1 133 -19 176 -61c44 -43 65 -103 64 -182c-3 -85 -35 -155 -98 -208c-62 -54 -138 -80 -229 -79c-81 1 -151 24 -208 68s-88 102 -91 173l216 -3c1 -25 8 -41 22 -49c12 -9 32 -12 57 -11
c67 3 105 39 115 109c10 63 -15 96 -75 97c-39 1 -74 -10 -106 -34zM498 111l-153 87l877 1126l154 -87zM1582 583c-2 -75 -47 -136 -135 -183c65 -41 96 -99 95 -174c-1 -51 -15 -94 -42 -130c-28 -35 -66 -62 -115 -82c-49 -18 -103 -27 -164 -26c-91 2 -163 23 -215 63
c-53 40 -78 93 -76 160c2 83 54 150 155 201c-55 41 -82 93 -81 156c1 73 31 130 88 172c58 43 130 63 215 62c82 0 149 -20 201 -59c51 -39 76 -93 74 -160zM1327 248c4 23 -1 40 -16 50c-15 11 -33 16 -54 16c-24 0 -47 -7 -67 -20c-22 -13 -34 -33 -39 -58
c-4 -23 1 -40 15 -52c13 -13 31 -19 52 -19c25 0 49 7 70 23c21 14 34 35 39 60zM1363 565c5 40 -13 60 -54 60c-21 0 -40 -6 -57 -19c-16 -13 -26 -30 -31 -51c-4 -19 -1 -35 9 -47s25 -18 44 -18c22 0 42 7 58 21c18 14 28 32 31 54z" />
    <glyph glyph-name="seveneighths" unicode="&#x215e;" horiz-adv-x="1778" 
d="M843 1305l-418 -651h-248l426 611l-397 2l31 176h630zM434 111l-153 87l877 1126l154 -87zM1541 583c-2 -75 -47 -136 -135 -183c65 -41 96 -99 95 -174c-1 -51 -15 -94 -43 -130c-27 -35 -65 -62 -114 -82c-49 -18 -103 -27 -164 -26c-91 2 -163 23 -216 63
c-52 40 -77 93 -75 160c2 83 54 150 155 201c-55 41 -82 93 -81 156c1 73 31 130 89 172c57 43 129 63 214 62c82 0 149 -20 200 -59c52 -39 77 -93 75 -160zM1286 248c4 23 -1 40 -16 50c-15 11 -33 16 -54 16c-24 0 -46 -7 -68 -20c-20 -13 -33 -33 -38 -58
c-4 -23 1 -40 14 -52c14 -13 32 -19 53 -19c25 0 49 7 70 23c21 14 34 35 39 60zM1322 565c5 40 -13 60 -54 60c-21 0 -40 -6 -56 -19c-17 -13 -27 -30 -32 -51c-4 -19 -1 -35 9 -47s25 -18 44 -18c22 0 41 7 59 21c16 14 27 32 30 54z" />
    <glyph glyph-name="partialdiff" unicode="&#x2202;" horiz-adv-x="1149" 
d="M604 1043c97 -3 182 -39 253 -109c2 109 -16 195 -55 256c-39 62 -94 95 -165 98c-41 1 -79 -3 -115 -12c-34 -9 -71 -22 -109 -37l-39 229c95 53 195 79 301 78c100 -1 185 -27 253 -78c70 -52 121 -128 156 -227c34 -99 50 -213 48 -342c-4 -187 -33 -351 -87 -491
s-127 -247 -221 -322c-92 -74 -199 -110 -320 -107c-95 1 -177 24 -246 69c-69 44 -121 106 -154 186c-34 81 -46 172 -37 273c15 163 71 294 171 393c98 99 221 147 366 143zM628 783c-61 2 -112 -21 -154 -67c-40 -48 -67 -117 -78 -208l-3 -20l-3 -84
c3 -108 48 -164 136 -167c124 -4 203 98 237 305l22 134c-35 69 -88 104 -157 107z" />
    <glyph glyph-name="product" unicode="&#x220f;" horiz-adv-x="1376" 
d="M1086 -270h-330l230 1474h-404l-231 -1474h-331l270 1726h1066z" />
    <glyph glyph-name="summation" unicode="&#x2211;" horiz-adv-x="1297" 
d="M923 583l-521 -591l713 -2l-45 -260h-1173l29 166l657 721l-411 704l24 135h1163l-46 -260h-712l325 -574z" />
    <glyph glyph-name="minus" unicode="&#x2212;" horiz-adv-x="1096" 
d="M981 578h-855l46 264h855z" />
    <glyph glyph-name="radical" unicode="&#x221a;" horiz-adv-x="1088" 
d="M515 305l456 1151h248l-594 -1456h-289l-72 485h-235l46 263h403z" />
    <glyph glyph-name="infinity" unicode="&#x221e;" horiz-adv-x="2115" 
d="M1419 -20c-88 1 -169 28 -243 81c-73 53 -127 125 -161 217c-148 -204 -312 -304 -493 -299c-95 1 -178 26 -248 75c-71 48 -123 114 -156 198c-33 85 -45 177 -35 277c19 173 84 313 193 419c109 107 241 158 395 154c92 -3 175 -30 247 -80c74 -52 127 -120 160 -205
c73 97 151 169 233 217c82 46 169 69 261 68c95 -1 177 -26 247 -74s121 -114 155 -196c32 -84 44 -175 35 -276c-14 -119 -48 -223 -103 -310c-54 -87 -123 -154 -208 -200c-85 -47 -178 -69 -279 -66zM401 431c5 -57 21 -101 49 -134s66 -49 115 -49c64 -1 127 28 189 88
c62 59 105 128 129 206l5 22c8 62 -11 122 -57 178c-46 58 -99 87 -159 90c-84 3 -152 -36 -205 -117s-75 -175 -66 -284zM1690 557c3 29 3 60 1 93c-5 57 -21 102 -49 134c-29 33 -66 49 -112 50c-63 1 -126 -26 -189 -81s-106 -120 -129 -194l-5 -22c-5 -40 1 -83 20 -127
c19 -46 46 -83 81 -112c36 -30 73 -46 111 -47c71 -3 131 24 181 81c49 57 79 132 90 225z" />
    <glyph glyph-name="integral" unicode="&#x222b;" horiz-adv-x="618" 
d="M359 -25c-15 -131 -62 -233 -140 -307c-78 -72 -180 -108 -306 -107c-45 0 -100 6 -165 19l38 255c31 -10 60 -15 87 -15c85 0 137 52 156 155l181 1196c15 124 63 220 144 289s186 102 314 101c45 -1 101 -8 169 -21l-40 -252c-35 9 -67 13 -98 13
c-42 -1 -77 -12 -105 -35c-27 -22 -45 -54 -53 -95z" />
    <glyph glyph-name="approxequal" unicode="&#x2248;" horiz-adv-x="1169" 
d="M142 919c70 70 152 105 247 105c71 0 150 -24 237 -72c88 -48 164 -72 227 -72c67 0 133 28 200 85l46 41l-26 -251c-30 -31 -62 -56 -96 -76s-73 -30 -117 -30c-42 0 -82 7 -118 21c-38 13 -75 30 -112 52c-38 20 -76 38 -112 52c-38 13 -78 20 -121 20
c-97 -1 -190 -44 -279 -127zM69 499c70 70 149 105 236 105c40 1 78 -5 113 -16c35 -12 75 -30 118 -53c44 -23 83 -42 118 -55s73 -20 114 -20s82 9 122 28s85 51 136 98l-25 -251c-71 -71 -146 -106 -225 -106c-42 0 -81 7 -118 21c-37 13 -74 30 -112 52
c-37 20 -75 38 -112 52c-37 13 -78 20 -121 20c-87 -1 -177 -44 -268 -127z" />
    <glyph glyph-name="notequal" unicode="&#x2260;" horiz-adv-x="1173" 
d="M968 283h-538l-138 -204l-128 71l97 131l-194 2l47 260l314 2l128 175l-412 2l46 260h536l130 194l129 -74l-90 -118l197 -2l-48 -260l-317 -2l-127 -175l414 -2z" />
    <glyph glyph-name="lessequal" unicode="&#x2264;" horiz-adv-x="1024" 
d="M410 757l499 -166l-51 -265l-797 325l46 239l923 324l-56 -287zM819 54h-855l46 264h855z" />
    <glyph glyph-name="greaterequal" unicode="&#x2265;" horiz-adv-x="1029" 
d="M675 772l-496 167l51 263l792 -324l-46 -239l-918 -324l56 287zM869 54h-855l46 264h855z" />
    <glyph glyph-name="lozenge" unicode="&#x25ca;" horiz-adv-x="1026" 
d="M507 1456h290l221 -746l-457 -710h-292l-220 744zM609 1112l-242 -402l92 -367l239 401z" />
    <glyph glyph-name="uniEE01" unicode="&#xee01;" horiz-adv-x="594" 
d="M67 341c-1 51 16 93 52 126s79 50 129 50c49 0 91 -15 126 -45c35 -31 53 -70 54 -119c1 -50 -16 -92 -51 -125c-35 -34 -79 -51 -130 -51s-93 15 -127 46s-52 70 -53 118zM205 1139c-1 51 16 93 52 126s79 50 129 50c49 0 91 -15 126 -45c35 -31 53 -70 54 -119
c1 -50 -16 -92 -51 -125c-35 -34 -79 -51 -130 -51s-93 15 -127 46s-52 70 -53 118z" />
    <glyph glyph-name="uniEE02" unicode="&#xee02;" horiz-adv-x="640" 
d="M255 663h-169l74 418h168zM555 663h-167l73 418h167z" />
    <glyph glyph-name="uniF6C3" unicode="&#xf6c3;" horiz-adv-x="439" 
d="M257 217c-13 -127 -73 -248 -182 -363l-155 82c58 87 95 165 111 236l21 113l210 1z" />
    <glyph glyph-name="f_f.dlig" horiz-adv-x="1339" 
d="M59 0l147 848h-152l40 234l152 1l13 95c17 115 63 207 138 275c81 72 186 107 315 106c33 0 88 -7 163 -22l-25 -249c-31 8 -57 12 -78 12c-49 0 -89 -11 -120 -34c-32 -22 -52 -54 -61 -96l-15 -88h205l-40 -234h-205l-147 -848h-330zM668 0l147 848h-152l40 234l152 1
l13 95c17 115 63 207 138 275c81 72 186 107 315 106c33 0 88 -7 163 -22l-25 -249c-31 8 -57 12 -78 12c-49 0 -89 -11 -121 -34c-31 -22 -51 -54 -60 -96l-15 -88h205l-40 -234h-205l-147 -848h-330z" />
    <glyph glyph-name="uniFB01" unicode="&#xfb01;" horiz-adv-x="1273" 
d="M63 0l147 848h-152l41 234l142 -1l8 41c29 141 91 250 187 325c95 75 220 112 373 111c85 -1 199 -20 344 -57l-70 -268c-103 33 -194 48 -272 47c-57 0 -107 -14 -149 -42c-42 -27 -70 -70 -85 -127l-7 -30l217 1l-42 -234h-205l-147 -848h-330zM1052 0h-330l187 1082
h331z" />
    <glyph glyph-name="uniFB02" unicode="&#xfb02;" horiz-adv-x="1269" 
d="M945 1292c-59 5 -103 8 -133 8c-62 0 -113 -13 -152 -39c-40 -26 -66 -62 -77 -109l-15 -71l214 1l-42 -234h-204l-147 -848h-330l147 848h-152l41 234l143 -1l12 71c23 133 81 234 172 304c91 68 210 103 355 103l175 -3l355 -19l-258 -1537h-331z" />
    <glyph glyph-name="uniFB03" unicode="&#xfb03;" horiz-adv-x="1929" 
d="M59 0l147 848h-152l40 234l152 1l15 106c19 119 69 211 149 277c80 65 181 97 302 94c43 -1 98 -9 163 -23l-25 -249c-31 8 -56 12 -77 12c-50 0 -91 -12 -123 -35c-31 -23 -51 -55 -59 -95l-15 -88l320 -1l8 41c29 141 91 250 186 325c96 75 221 112 374 111
c60 -1 118 -7 176 -19c56 -12 114 -26 172 -41l-75 -265c-101 31 -191 46 -270 46c-57 0 -107 -14 -149 -41s-70 -70 -85 -127l-7 -30l216 1l-42 -234h-204l-147 -848h-331l147 848h-329l-147 -848h-330zM1707 0h-330l188 1082h330z" />
    <glyph glyph-name="uniFB04" unicode="&#xfb04;" horiz-adv-x="1929" 
d="M59 0l147 848h-152l40 234l152 1l13 94c18 126 69 223 154 290c79 63 179 93 300 92c35 0 89 -7 162 -22l-25 -249c-31 8 -56 12 -77 12c-50 0 -91 -12 -123 -35c-31 -23 -51 -55 -59 -95l-15 -88l322 -1l15 88c23 125 80 221 171 289c92 69 210 102 353 101l150 -3
l378 -19l-258 -1537h-330l230 1293c-59 5 -103 8 -134 8c-131 0 -208 -53 -232 -158l-14 -62l214 1l-42 -234h-203l-147 -848h-331l147 848h-329l-147 -848h-330z" />
    <glyph glyph-name="longs_t.dlig" horiz-adv-x="1321" 
d="M1321 848h-173l-84 -497l-2 -45c2 -38 28 -58 77 -60c14 -1 42 1 84 5l-24 -243c-57 -19 -116 -27 -176 -26c-101 1 -177 31 -229 88c-51 58 -72 138 -63 241l88 537h-134l41 234h133l39 192c-34 18 -84 27 -149 27c-91 0 -144 -47 -161 -142l-200 -1159h-329l147 848
h-152l40 234l152 1l12 87c16 124 65 220 148 288c83 69 188 102 317 101c65 0 135 -7 209 -22c75 -15 179 -44 313 -88l-56 -367h173z" />
    <glyph glyph-name="s_t.dlig" horiz-adv-x="1723" 
d="M1272 1174c5 48 -4 86 -26 114c-22 29 -54 43 -97 43c-58 0 -103 -22 -137 -67c-32 -45 -47 -109 -42 -194c1 -33 6 -85 14 -158c7 -72 10 -126 8 -163h-330c1 40 -6 71 -22 95c-16 22 -46 34 -89 33c-33 0 -65 -10 -93 -29c-30 -20 -47 -46 -54 -79
c-10 -47 24 -81 102 -101c79 -21 128 -34 148 -41c174 -57 258 -159 253 -305c-2 -69 -25 -131 -71 -184c-44 -53 -109 -94 -193 -123c-73 -25 -150 -36 -231 -35c-121 1 -222 36 -304 104c-81 69 -123 157 -124 265l306 -1c-1 -95 46 -143 141 -143c42 0 78 10 107 29
s47 45 54 77c11 49 -31 85 -127 106c-125 28 -219 71 -281 127c-62 58 -91 127 -88 208c2 71 24 132 67 186c43 52 100 94 173 124c73 29 149 43 230 42c43 0 97 -6 162 -19c-14 76 -19 133 -16 172c8 96 55 171 142 225c87 55 194 81 323 78c140 -3 249 -40 326 -108
c77 -70 110 -163 98 -280l-13 -90h173l-41 -234h-172l-85 -496c-5 -34 -2 -60 7 -77c10 -17 33 -27 69 -28h42l42 4l-24 -244c-59 -19 -117 -27 -176 -25c-97 1 -171 32 -221 92c-50 59 -72 143 -66 250l2 27l81 497h-135l40 234h134z" />
    <glyph glyph-name="uniFEFF" unicode="&#xfeff;" horiz-adv-x="0" 
 />
    <glyph glyph-name="uniFFFC" unicode="&#xfffc;" horiz-adv-x="2034" 
d="M780 468c-5 -67 -31 -121 -76 -162s-100 -60 -163 -59c-65 1 -118 23 -157 65c-39 41 -58 93 -55 156l7 112c5 65 30 119 74 160c45 41 99 61 164 60s116 -23 156 -64c38 -42 57 -94 56 -157zM798 252l96 549l164 -1c63 -2 111 -15 144 -40s49 -59 49 -103
c0 -25 -7 -48 -21 -68s-39 -40 -76 -60c25 -9 44 -24 58 -45c13 -21 20 -45 21 -71c1 -48 -16 -87 -52 -115c-36 -30 -86 -45 -150 -47zM698 583c5 42 -2 77 -19 103c-17 28 -45 42 -84 43c-43 1 -79 -13 -109 -41c-29 -30 -47 -68 -54 -115l-15 -106c-5 -45 2 -80 21 -106
s47 -40 84 -41c44 -1 80 12 108 41c29 29 46 64 53 107zM1657 804l101 -1l-58 -379c-5 -51 -25 -92 -59 -124c-34 -30 -78 -46 -131 -46c-60 0 -107 15 -140 45s-51 71 -52 123l87 -3c-3 -62 24 -93 81 -93c30 0 55 10 75 28c20 20 33 43 39 71zM-92 -398l56 315h112
l-36 -202h190l-20 -113h-302zM1489 -398l20 113h192l36 202h110l-56 -315h-302zM180 1169l50 285h302l-21 -116h-189l-31 -169h-111zM1789 1338l21 116h303l-50 -285h-110l30 169h-194zM935 496l-29 -169h105c75 3 118 33 131 90c10 47 -11 73 -64 78zM1402 1338l21 116h272
l-21 -116h-272zM1015 1338l21 116h271l-21 -116h-271zM628 1338l21 116h270l-21 -116h-270zM1102 -398l20 113h272l-21 -113h-271zM714 -398l21 113h271l-21 -113h-271zM327 -398l21 113h270l-21 -113h-270zM939 563l84 1c84 4 131 33 142 88c7 37 -12 57 -55 62l-33 3
l-97 2zM161 416h-112l45 252h112zM226 794h-111l44 250h112zM96 41h-112l45 249h111zM1932 416h-110l45 252h110zM1998 794h-110l44 250h110zM1867 41h-110l45 249h110z" />
    <glyph glyph-name="uniFFFD" unicode="&#xfffd;" horiz-adv-x="2101" 
d="M1048 1618l959 -975l-959 -975l-956 975zM1131 402c0 39 5 68 15 87s27 37 51 53c49 26 89 62 120 106c31 46 46 93 46 142c0 85 -28 153 -83 204c-56 50 -134 75 -233 75c-96 0 -171 -23 -224 -69c-53 -47 -81 -112 -82 -197h203c1 34 12 60 31 77s43 26 72 26
c38 0 66 -11 85 -32s28 -49 28 -84c0 -63 -31 -115 -93 -155c-61 -43 -99 -80 -115 -111c-15 -31 -23 -71 -23 -122h202zM1131 311h-202v-170h202v170zM1056 -551h4v-4h-4v4zM1054 2163h4v-4h-4v4z" />
    <glyph glyph-name="two.dnom" horiz-adv-x="754" 
d="M573 0h-611l28 159l300 239c80 63 125 117 134 161c5 21 2 39 -8 51c-11 14 -27 20 -49 19c-26 0 -48 -10 -67 -29c-18 -20 -30 -46 -37 -77l-222 -2c4 83 36 151 95 204s133 79 220 78c93 -1 165 -24 216 -68c52 -44 77 -103 75 -178c-3 -87 -53 -166 -151 -239
l-207 -141l316 -2z" />
    <glyph glyph-name="one.dnom" horiz-adv-x="754" 
d="M423 0h-218l91 529l-177 -36l31 177l376 116l25 1z" />
    <glyph glyph-name="zero.dnom" horiz-adv-x="754" 
d="M299 -12c-91 3 -161 32 -211 88c-49 56 -71 132 -64 229l19 174c11 101 47 181 107 239c61 58 138 86 233 83c91 -3 162 -33 212 -92s71 -135 63 -229l-19 -174c-11 -101 -47 -180 -107 -237c-61 -57 -138 -84 -233 -81zM440 488l3 44c0 61 -22 93 -66 94
c-61 2 -98 -47 -111 -148l-23 -180l-3 -44c-2 -26 2 -48 13 -64c11 -18 28 -26 51 -27c60 -2 98 44 113 137z" />
    <glyph glyph-name="nine.c2sc" horiz-adv-x="1053" 
d="M232 236c108 -3 192 11 252 44c60 32 108 85 144 160c-65 -47 -131 -70 -198 -70c-111 0 -197 35 -257 104c-60 70 -86 161 -78 274c6 79 33 153 80 220s109 120 187 158c76 39 157 58 241 57c131 -3 233 -47 303 -134c72 -87 101 -202 88 -347l-9 -83
c-25 -206 -104 -364 -237 -475c-132 -110 -311 -165 -536 -165h-20l27 257h13zM533 605c43 0 83 14 121 41l22 125l3 57c-2 63 -35 94 -98 94c-39 0 -74 -17 -103 -50c-29 -34 -47 -77 -54 -130c-5 -41 1 -74 18 -98c17 -26 48 -38 91 -39z" />
    <glyph glyph-name="eight.c2sc" horiz-adv-x="1053" 
d="M995 858c-7 -110 -74 -198 -201 -265c97 -63 143 -151 138 -262c-4 -106 -49 -190 -135 -253c-86 -62 -198 -93 -337 -94h-19c-132 2 -236 33 -313 92c-76 59 -111 139 -106 239c3 63 24 119 62 166c37 47 95 89 172 125c-82 61 -121 139 -117 235c3 105 48 188 133 250
s196 92 331 91c122 -1 219 -31 292 -90c73 -58 106 -136 100 -234zM609 364c5 32 -3 56 -22 74c-19 16 -46 25 -80 25c-40 0 -74 -11 -102 -31c-28 -22 -44 -49 -49 -82c-5 -31 2 -57 22 -77c21 -20 48 -30 81 -30c38 0 71 11 99 34c29 23 46 52 51 87zM664 833
c9 59 -17 89 -79 89c-31 0 -58 -9 -81 -26c-22 -18 -36 -43 -41 -75c-5 -29 0 -52 13 -71c14 -18 36 -27 66 -27c34 -1 62 9 82 31c22 20 35 47 40 79z" />
    <glyph glyph-name="seven.c2sc" horiz-adv-x="1053" 
d="M1033 968l-621 -968h-363l625 903l-583 2l45 260h931z" />
    <glyph glyph-name="six.c2sc" horiz-adv-x="1053" 
d="M906 1193l-28 -264h-10c-113 3 -205 -15 -278 -53c-72 -37 -131 -99 -177 -185c72 59 155 88 249 87c101 -1 181 -37 240 -108c58 -71 83 -162 76 -273c-5 -79 -31 -150 -78 -213c-47 -64 -110 -114 -187 -150s-158 -53 -241 -51c-144 3 -254 48 -330 135
c-75 88 -106 203 -93 346l6 58c22 205 105 368 249 489c143 121 329 182 557 182h45zM538 524c-56 1 -108 -19 -157 -60l-11 -64c-3 -23 -4 -44 -2 -63c5 -63 43 -95 114 -95c41 0 77 16 108 47c32 31 52 69 59 113c5 40 -2 70 -22 90c-20 21 -50 31 -89 32z" />
    <glyph glyph-name="five.c2sc" horiz-adv-x="1053" 
d="M67 566l185 599h745l-44 -252h-472l-73 -187c51 26 110 39 178 39c112 1 199 -31 262 -97c63 -65 90 -153 82 -264c-5 -81 -30 -154 -76 -220c-45 -64 -106 -115 -182 -151s-158 -53 -245 -51c-75 1 -146 16 -213 47c-66 31 -118 72 -155 125s-56 113 -57 182l330 -2
c0 -31 8 -54 24 -69s45 -22 88 -22c75 0 125 38 148 113c11 37 15 73 10 106c-9 59 -46 89 -112 89c-61 0 -112 -17 -155 -52z" />
    <glyph glyph-name="four.c2sc" horiz-adv-x="1053" 
d="M854 494h117l-45 -262h-117l-41 -232h-329l41 232h-467l16 229l601 698l1 8l340 -2zM347 496l180 -2l56 277l-22 -28z" />
    <glyph glyph-name="three.c2sc" horiz-adv-x="1053" 
d="M386 699l114 -1c46 1 84 13 116 36c30 23 50 54 57 94c5 30 -3 53 -22 70s-46 25 -81 25c-71 1 -116 -24 -135 -75l-333 -2c3 67 24 126 64 177c38 51 94 90 167 119s152 42 237 41c135 -3 243 -33 324 -91c81 -57 119 -136 114 -237c-3 -58 -24 -108 -62 -151
c-37 -43 -98 -80 -182 -113c59 -19 103 -51 132 -97c30 -44 44 -98 41 -159c-2 -69 -24 -130 -67 -183c-43 -52 -106 -94 -188 -124c-84 -32 -175 -46 -276 -44c-127 1 -229 36 -307 103s-117 157 -117 270l327 -1c1 -35 14 -62 39 -82c24 -19 57 -29 99 -29
c45 0 83 11 115 34c30 23 50 53 57 91c14 76 -27 116 -122 119l-148 1z" />
    <glyph glyph-name="two.c2sc" horiz-adv-x="1053" 
d="M867 0h-902l40 229l458 363l49 43c76 67 120 129 132 186c6 32 2 57 -14 77c-14 18 -39 28 -72 29c-39 0 -72 -15 -99 -45c-27 -29 -43 -66 -49 -111l-329 -2c7 121 56 221 147 299s202 116 333 115c87 -1 164 -17 229 -45c66 -30 116 -71 150 -126
c33 -55 48 -120 43 -195c-5 -68 -28 -131 -69 -189c-41 -57 -101 -113 -180 -168l-139 -94l-143 -104l461 -3z" />
    <glyph glyph-name="one.c2sc" horiz-adv-x="1053" 
d="M649 0h-328l136 782l-293 -58l45 255l599 181l34 1z" />
    <glyph glyph-name="zero.c2sc" horiz-adv-x="1053" 
d="M443 -16c-131 3 -233 44 -303 124c-72 81 -102 187 -93 319l2 23l40 279c23 145 81 257 174 338c92 79 205 117 340 114c87 -2 163 -23 225 -63c64 -39 110 -95 139 -167s39 -153 29 -242l-37 -257c-21 -151 -77 -267 -169 -350s-208 -122 -347 -118zM667 720l4 64
c3 89 -28 136 -93 139c-88 4 -142 -64 -161 -205l-38 -276l-5 -64c-3 -41 4 -73 20 -98s40 -38 73 -39c90 -4 144 63 163 202z" />
    <glyph glyph-name="Z.c2sc" horiz-adv-x="1058" 
d="M425 261l532 -2l-45 -259h-966l27 175l75 79v5l593 644l-547 2l46 260h974l-30 -172z" />
    <glyph glyph-name="Y.c2sc" horiz-adv-x="1095" 
d="M552 705l281 460h370l-534 -772l-69 -393h-330l77 438l-254 726l341 1z" />
    <glyph glyph-name="X.c2sc" horiz-adv-x="1105" 
d="M556 811l226 354l392 -1l-441 -593l260 -571h-375l-118 361l-235 -361h-393l453 603l-227 561l360 1z" />
    <glyph glyph-name="W.c2sc" horiz-adv-x="1486" 
d="M993 494l234 671h320l-449 -1165h-335l-28 597l-231 -597h-334l-48 1165h309l-2 -667l252 667h289z" />
    <glyph glyph-name="V.c2sc" horiz-adv-x="1149" 
d="M509 326l-2 -24l8 21l385 842h355l-600 -1165h-371l-192 1165l323 2z" />
    <glyph glyph-name="U.c2sc" horiz-adv-x="1153" 
d="M1161 1165l-126 -746c-17 -137 -75 -244 -171 -322c-98 -78 -222 -116 -375 -113c-91 1 -171 20 -242 56c-71 38 -123 88 -156 153s-46 140 -37 225l126 747h330l-125 -749c-3 -25 -4 -47 -1 -68c7 -69 49 -104 126 -106c108 -4 172 55 193 176l127 747h331z" />
    <glyph glyph-name="T.c2sc" horiz-adv-x="1104" 
d="M1119 905h-359l-158 -905h-331l158 905h-350l46 260h1040z" />
    <glyph glyph-name="S.c2sc" horiz-adv-x="1094" 
d="M657 325c10 55 -25 95 -104 120l-120 36l-77 27c-158 60 -233 165 -224 314c6 107 55 194 146 262c91 66 202 99 332 98c140 -3 250 -38 329 -104c79 -65 119 -154 119 -265l-327 1c-1 39 -12 71 -35 95s-54 36 -95 35c-39 0 -75 -10 -106 -30c-31 -21 -50 -46 -57 -76
c-10 -48 22 -83 97 -106s119 -36 132 -41l64 -23c164 -65 242 -175 233 -332c-5 -73 -28 -137 -69 -190s-100 -94 -176 -122c-76 -29 -159 -42 -248 -41c-138 1 -250 37 -335 108s-127 167 -126 289l329 -1c-3 -59 9 -101 37 -125c27 -26 71 -37 130 -36c41 1 75 12 102 30
c27 20 43 45 49 77z" />
    <glyph glyph-name="R.c2sc" horiz-adv-x="1144" 
d="M506 386h-135l-67 -386h-330l202 1165l485 -1c133 -3 238 -34 315 -92c76 -59 111 -141 106 -246c-5 -90 -29 -163 -74 -220c-45 -56 -107 -100 -188 -133l168 -457v-16h-352zM415 646l156 -1c45 1 85 12 118 35s54 58 62 105c6 38 -1 67 -19 87c-20 19 -47 30 -83 32
l-188 1z" />
    <glyph glyph-name="Q.c2sc" horiz-adv-x="1190" 
d="M848 88l159 -150l-214 -159l-224 207l-28 -2l-29 1c-101 1 -188 27 -261 75c-73 50 -127 118 -162 206c-35 87 -47 185 -36 293l2 20c18 183 85 330 202 441s257 165 421 161c141 -2 254 -51 340 -145c86 -96 128 -219 125 -371l-3 -56l-5 -48
c-25 -208 -121 -366 -287 -473zM811 611l4 100l-2 33c-12 117 -64 177 -155 182c-72 3 -132 -24 -182 -82c-48 -57 -79 -138 -92 -243c-6 -61 -9 -109 -9 -143c0 -65 14 -118 41 -158c27 -39 67 -60 119 -61c69 -3 127 24 175 81c49 57 80 138 95 243z" />
    <glyph glyph-name="P.c2sc" horiz-adv-x="1130" 
d="M367 365l-63 -365h-330l202 1165l475 -1c86 -2 163 -20 231 -54c67 -35 119 -82 154 -144c35 -60 51 -130 46 -209c-5 -76 -29 -144 -74 -203c-44 -59 -107 -106 -190 -140c-83 -33 -172 -50 -269 -50zM412 625l148 -1c54 2 98 14 132 36c33 23 54 54 62 94
c7 42 1 77 -18 104c-20 28 -51 43 -94 46l-181 1z" />
    <glyph glyph-name="O.c2sc" horiz-adv-x="1190" 
d="M510 -16c-102 1 -190 27 -264 76c-75 49 -129 118 -164 205s-47 185 -37 294l4 41c13 112 48 213 105 304c58 91 132 160 222 208c90 49 189 72 296 69c100 -1 187 -27 260 -75c74 -50 129 -118 164 -204c35 -88 48 -185 39 -293l-4 -40c-13 -112 -47 -213 -103 -304
c-57 -91 -130 -161 -221 -211c-91 -49 -190 -73 -297 -70zM808 676c5 161 -47 245 -156 250c-72 3 -132 -24 -181 -82s-79 -139 -92 -243c-6 -61 -9 -109 -9 -143c0 -65 14 -118 41 -158c27 -39 67 -60 119 -61c81 -4 147 34 197 113s77 187 81 324z" />
    <glyph glyph-name="N.c2sc" horiz-adv-x="1203" 
d="M1012 0h-320l-268 691l-120 -691h-330l202 1165h320l269 -691l120 691h329z" />
    <glyph glyph-name="M.c2sc" horiz-adv-x="1509" 
d="M606 1165l106 -740l363 740h444l-203 -1165h-332l35 197l134 585l-396 -782h-214l-131 819l-79 -656l-28 -163h-331l202 1165h430z" />
    <glyph glyph-name="L.c2sc" horiz-adv-x="936" 
d="M348 259h492l-46 -259h-820l202 1165h330z" />
    <glyph glyph-name="K.c2sc" horiz-adv-x="1108" 
d="M491 392l-122 -102l-3 14l-63 -304h-329l202 1165h330l-78 -442l367 442h434l-484 -534l267 -631h-373z" />
    <glyph glyph-name="J.c2sc" horiz-adv-x="975" 
d="M652 1165h330l-126 -750c-19 -131 -72 -237 -160 -317c-89 -79 -194 -118 -317 -115c-129 3 -227 39 -296 109c-69 69 -101 168 -98 297l331 -1v-49c2 -65 31 -98 86 -98c62 -2 102 44 119 137l6 37z" />
    <glyph glyph-name="I.c2sc" horiz-adv-x="540" 
d="M325 0h-329l202 1165h329z" />
    <glyph glyph-name="H.c2sc" horiz-adv-x="1204" 
d="M1013 0h-328l76 440h-381l-76 -440h-330l202 1165h330l-81 -465h381l81 465h328z" />
    <glyph glyph-name="G.c2sc" horiz-adv-x="1156" 
d="M1039 137c-49 -50 -119 -88 -209 -115c-91 -27 -194 -39 -310 -37c-104 1 -193 26 -268 74c-74 48 -128 115 -161 199c-33 86 -44 183 -33 293l6 50c21 176 88 317 199 425c111 106 247 159 407 156c145 -3 258 -40 336 -111c80 -71 123 -174 132 -308l-312 1
c-5 53 -19 93 -43 118s-64 39 -119 41c-83 3 -150 -34 -200 -109c-51 -76 -78 -189 -82 -338v-33c0 -61 15 -109 44 -143c29 -35 74 -53 133 -55c54 -1 105 8 153 28l31 144h-195l40 225h524z" />
    <glyph glyph-name="F.c2sc" horiz-adv-x="942" 
d="M844 440h-464l-76 -440h-330l202 1165h832l-45 -260h-502l-36 -205h465z" />
    <glyph glyph-name="dollar.c2sc" horiz-adv-x="1094" 
d="M657 326c10 55 -25 95 -106 120l-115 34l-80 28c-159 59 -234 164 -225 314c6 101 49 182 128 246c79 62 183 99 311 109l46 218h157l-47 -224c102 -17 182 -56 242 -119c58 -63 88 -142 88 -239l-325 1c-1 39 -13 71 -35 95c-24 24 -55 36 -96 36
c-39 0 -75 -10 -106 -31c-31 -20 -50 -45 -57 -76c-10 -48 22 -83 97 -106l106 -32l77 -27c173 -65 255 -177 246 -336c-6 -102 -47 -183 -123 -243s-177 -95 -303 -105l-48 -226h-157l48 228c-115 14 -206 55 -272 123c-66 69 -99 157 -99 266l329 -1
c-3 -59 10 -100 38 -125c27 -25 71 -36 130 -35c41 1 74 11 102 30c26 19 43 44 49 77z" />
    <glyph glyph-name="sterling.c2sc" horiz-adv-x="1190" 
d="M868 469l-319 1c-27 -83 -81 -155 -162 -214l648 4l-46 -260h-955l38 258l7 -1c53 19 91 65 114 139l20 75l-167 -2l33 183l144 -1l16 101c24 138 79 245 163 320c86 75 193 112 323 109c129 -3 228 -42 296 -117s100 -178 96 -308l-331 1l1 55c0 75 -28 113 -84 114
c-70 2 -115 -51 -135 -160l-17 -115l349 1z" />
    <glyph glyph-name="yen.c2sc" horiz-adv-x="921" 
d="M481 785l176 380h356l-291 -513h163l-33 -180h-235l-32 -46l-8 -28h265l-33 -179h-257l-39 -219h-331l39 219h-258l33 179h252l13 44l-2 30h-253l33 180h180l-111 513h331z" />
    <glyph glyph-name="Gamma.c2sc" horiz-adv-x="958" 
d="M979 905h-518l-157 -905h-330l202 1165h849z" />
    <glyph glyph-name="uni0394.c2sc" horiz-adv-x="1148" 
d="M1051 0h-1163l601 1165h366zM606 840l-1 21l-6 -20l-262 -581h335z" />
    <glyph glyph-name="Theta.c2sc" horiz-adv-x="1190" 
d="M725 439h-313l45 260h314zM510 -16c-102 1 -190 27 -264 76c-75 49 -129 118 -164 205s-47 185 -37 294l4 41c13 112 48 213 105 304c58 91 132 160 222 208c91 49 189 72 296 69c100 -1 187 -27 261 -77s129 -118 163 -204c36 -87 48 -184 39 -291l-4 -40
c-13 -112 -47 -213 -103 -304c-57 -91 -130 -161 -221 -211c-91 -49 -190 -73 -297 -70zM808 676c5 161 -47 245 -156 250c-72 3 -132 -24 -181 -82s-79 -139 -92 -243c-6 -61 -9 -109 -9 -143c0 -65 14 -118 41 -158c27 -39 67 -60 119 -61c71 -2 130 27 178 87
c48 59 79 141 92 244z" />
    <glyph glyph-name="Lambda.c2sc" horiz-adv-x="1148" 
d="M214 0h-326l600 1165h367l196 -1165h-351l-94 840l-1 21l-6 -20z" />
    <glyph glyph-name="Xi.c2sc" horiz-adv-x="940" 
d="M747 0h-772l45 260h772zM740 472h-595l45 260h596zM904 905h-773l46 260h772z" />
    <glyph glyph-name="Pi.c2sc" horiz-adv-x="1228" 
d="M1037 0h-330l157 905h-403l-157 -905h-330l202 1165h1063z" />
    <glyph glyph-name="Sigma.c2sc" horiz-adv-x="1109" 
d="M686 600l-256 -338l540 -2l-46 -260h-955l29 167l367 455l-218 408l24 135h941l-45 -260h-526l145 -290v-15z" />
    <glyph glyph-name="Phi.c2sc" horiz-adv-x="1517" 
d="M996 1046c154 -13 273 -59 356 -139c84 -80 121 -184 112 -311c-7 -93 -35 -176 -84 -246c-50 -72 -121 -128 -212 -170c-92 -42 -198 -66 -319 -73l-25 -107h-329l26 108c-154 12 -273 60 -358 144c-85 85 -122 193 -113 326c10 140 70 251 178 334
c110 82 256 127 440 136l27 118l329 -1zM380 577c-11 -65 -2 -117 28 -155c28 -39 75 -64 138 -75l94 462c-151 -21 -237 -98 -260 -232zM1135 597c15 117 -39 187 -164 210l-93 -462c71 11 129 38 174 80s73 99 83 172z" />
    <glyph glyph-name="Psi.c2sc" horiz-adv-x="1446" 
d="M879 524c116 21 191 97 224 226l14 62l57 353h330l-52 -316c-31 -175 -99 -312 -202 -411c-103 -100 -237 -157 -400 -170l-54 -268h-330l55 269c-146 18 -256 82 -329 192s-100 249 -79 418l48 286h331l-49 -300l-10 -88c-15 -131 25 -212 118 -244l117 632h330z" />
    <glyph glyph-name="uni03A9.c2sc" horiz-adv-x="1189" 
d="M575 267c128 69 203 183 224 344l6 45c3 31 4 63 3 94c-3 53 -19 95 -46 126s-66 47 -116 49c-87 3 -156 -35 -205 -113c-39 -63 -62 -165 -68 -306c-5 -113 32 -192 110 -238l-42 -268h-467l48 264l193 3c-112 127 -162 259 -150 398l3 32c9 91 41 175 98 249
c56 76 129 134 218 176c89 41 184 61 283 59c93 -2 177 -24 254 -67c77 -42 134 -99 173 -171s55 -152 48 -239l-3 -34c-19 -171 -118 -308 -295 -410l204 4l-46 -264h-468z" />
    <glyph glyph-name="uni0402.c2sc" horiz-adv-x="1444" 
d="M406 905h-327l46 260h987l-45 -260l-331 1l-37 -163c71 17 141 26 212 26c138 -1 247 -38 327 -111c81 -72 117 -170 110 -293s-57 -218 -150 -285c-93 -66 -224 -100 -393 -102l25 245c53 1 96 14 128 37c32 24 51 56 58 97c15 98 -42 149 -172 152
c-45 1 -103 -5 -173 -18l-92 -491h-330z" />
    <glyph glyph-name="uni0404.c2sc" horiz-adv-x="1134" 
d="M1048 408c-7 -87 -35 -162 -86 -228c-51 -64 -118 -114 -200 -148c-84 -34 -174 -50 -271 -48c-103 1 -190 26 -261 74c-71 49 -123 116 -154 204c-31 86 -41 186 -30 298l2 22c19 182 83 328 193 440c110 110 245 164 406 160c139 -3 251 -42 336 -118
s132 -182 141 -318l-327 1c5 114 -51 173 -169 177c-51 1 -95 -14 -132 -48c-38 -32 -71 -87 -100 -164l278 1l-46 -260h-260c-5 -71 4 -123 27 -157s61 -52 113 -54c57 -2 105 10 144 38c38 26 61 69 70 127z" />
    <glyph glyph-name="uni0409.c2sc" horiz-adv-x="1864" 
d="M1775 419c-5 -79 -30 -150 -75 -213s-110 -112 -192 -149c-84 -37 -173 -56 -270 -57h-544l158 905h-226l-49 -233c-34 -183 -75 -320 -123 -409c-49 -89 -110 -155 -186 -199c-74 -42 -164 -64 -269 -64h-67l23 261l55 9c119 28 194 132 226 313l25 144l88 438h878
l-62 -350l138 -1c149 -1 266 -37 353 -110s126 -168 119 -285zM1121 555l-52 -295l161 -1c56 1 104 17 144 47c41 29 65 68 74 115c7 38 -2 69 -25 93c-23 23 -59 37 -107 40z" />
    <glyph glyph-name="uni040A.c2sc" horiz-adv-x="1846" 
d="M425 700h372l81 465h330l-61 -350l137 -1c149 -1 267 -37 354 -110s126 -168 119 -285c-5 -79 -30 -150 -75 -213s-110 -112 -192 -149c-84 -37 -173 -56 -270 -57h-544l77 440h-373l-76 -440h-330l202 1165h330zM1102 555l-51 -295l161 -1c55 1 103 17 144 45
c41 30 65 68 74 116c7 37 -2 68 -25 92c-23 25 -59 39 -108 42z" />
    <glyph glyph-name="uni040B.c2sc" horiz-adv-x="1462" 
d="M406 905h-327l46 260h987l-45 -260l-331 1l-37 -163c73 17 142 26 205 26c151 -1 264 -42 340 -121c77 -80 107 -190 92 -331l-50 -317h-332l53 317c8 67 -1 115 -27 145c-25 29 -71 45 -137 46c-43 2 -101 -4 -172 -17l-92 -491h-330z" />
    <glyph glyph-name="uni040F.c2sc" horiz-adv-x="1228" 
d="M1037 0h-348l-59 -340h-331l59 340h-384l202 1165h330l-157 -905h403l157 905h330z" />
    <glyph glyph-name="uni0411.c2sc" horiz-adv-x="1153" 
d="M1020 905h-561l-23 -130h197c147 -3 257 -38 331 -105c73 -67 102 -157 85 -271c-12 -85 -45 -157 -99 -218s-124 -107 -209 -138s-178 -46 -277 -44l-488 1l202 1165h887zM543 259c122 3 182 49 180 138c0 75 -57 114 -170 118h-161l-46 -255z" />
    <glyph glyph-name="uni0414.c2sc" horiz-adv-x="1437" 
d="M48 258c70 59 125 126 166 198c41 74 73 171 96 292l72 417h896l-157 -905h157l-102 -591h-330l57 331h-652l-58 -331h-329l102 590zM433 255l357 5l112 645h-238l-25 -155l-18 -90c-37 -167 -99 -302 -188 -405z" />
    <glyph glyph-name="uni0416.c2sc" horiz-adv-x="1663" 
d="M1060 419h-101l-71 -419h-329l73 419h-82l-231 -419h-414l396 631l-150 534h364l78 -431h93l75 431h329l-76 -431h80l228 431h391l-355 -560l167 -605h-379z" />
    <glyph glyph-name="uni0417.c2sc" horiz-adv-x="1080" 
d="M522 696c100 3 157 45 172 126c6 33 0 58 -19 76s-48 27 -88 27c-67 0 -110 -25 -130 -76l-335 -2c5 108 53 191 143 251c90 58 203 87 339 84c137 -3 243 -31 320 -84s113 -128 108 -224c-7 -119 -81 -214 -223 -285c50 -25 88 -59 114 -104s38 -95 36 -151
c-6 -133 -74 -229 -205 -290c-91 -42 -195 -62 -314 -60c-133 1 -238 34 -316 98c-79 65 -118 151 -118 260l327 -1c0 -67 43 -100 128 -100c50 0 91 12 123 35c31 23 50 56 56 97c11 75 -33 114 -131 117l-154 1l37 206z" />
    <glyph glyph-name="uni0418.c2sc" horiz-adv-x="1205" 
d="M897 1165h317l-202 -1165h-326l117 670l-511 -670h-316l202 1165h326l-117 -667z" />
    <glyph glyph-name="uni041A.c2sc" horiz-adv-x="1119" 
d="M493 419h-116l-73 -419h-330l202 1165h330l-76 -431h107l238 431h386l-377 -569l199 -596h-382z" />
    <glyph glyph-name="uni041B.c2sc" horiz-adv-x="1216" 
d="M1227 1165l-203 -1165h-330l158 905h-227l-71 -350c-45 -198 -110 -339 -196 -423c-87 -85 -201 -129 -343 -132h-83l23 261l46 7c123 25 201 127 234 304l27 155l87 438h878z" />
    <glyph glyph-name="uni0423.c2sc" horiz-adv-x="1151" 
d="M618 675l278 490h354l-542 -870c-71 -119 -140 -202 -206 -249c-68 -46 -142 -70 -224 -71l-113 2l19 266l65 -5c39 0 72 8 99 24c26 17 51 40 76 69l-299 833l338 1z" />
    <glyph glyph-name="uni0426.c2sc" horiz-adv-x="1442" 
d="M1082 260h223l-122 -591h-311l58 331h-956l202 1165h330l-157 -905h403l157 905h330z" />
    <glyph glyph-name="uni0427.c2sc" horiz-adv-x="1197" 
d="M1017 0h-330l79 401c-61 -15 -114 -24 -160 -25c-167 -1 -292 38 -376 116c-84 80 -118 191 -102 336l54 337h331l-56 -337c-8 -67 1 -115 26 -144c25 -30 71 -46 138 -47c44 -2 102 4 173 17l95 511h330z" />
    <glyph glyph-name="uni0428.c2sc" horiz-adv-x="1711" 
d="M1520 0h-1546l202 1165h330l-157 -905h278l157 905h330l-157 -905h278l157 905h330z" />
    <glyph glyph-name="uni0429.c2sc" horiz-adv-x="1925" 
d="M1565 260h223l-122 -591h-311l58 331h-1439l202 1165h330l-157 -905h278l157 905h330l-157 -905h278l157 905h330z" />
    <glyph glyph-name="uni042A.c2sc" horiz-adv-x="1460" 
d="M957 815c88 -2 166 -19 233 -53c67 -32 117 -79 149 -138s42 -128 30 -205c-13 -85 -47 -159 -102 -223c-55 -63 -127 -112 -213 -148c-88 -34 -179 -51 -274 -49l-488 1l157 905h-385l45 260h711l-61 -350h198zM860 259c54 1 98 17 134 47c34 30 51 68 50 113
c0 39 -15 71 -46 95c-30 25 -71 38 -123 40l-160 1l-53 -295z" />
    <glyph glyph-name="uni042B.c2sc" horiz-adv-x="1584" 
d="M1053 419c-13 -85 -47 -159 -103 -223s-127 -113 -214 -148s-177 -51 -272 -49l-488 1l202 1165h326l-61 -350l175 -1c147 -1 260 -37 341 -110c81 -72 112 -167 94 -285zM544 259c53 1 97 17 132 47c34 30 51 68 51 113c-1 41 -17 73 -48 97s-71 37 -120 38l-161 1
l-52 -295zM1392 0h-329l202 1165h329z" />
    <glyph glyph-name="uni042C.c2sc" horiz-adv-x="1143" 
d="M1053 419c-13 -85 -47 -159 -103 -223s-127 -113 -214 -148s-177 -51 -272 -49l-488 1l202 1165h326l-61 -350l175 -1c147 -1 260 -37 341 -110c81 -72 112 -167 94 -285zM544 259c53 1 97 17 132 47c34 30 51 68 51 113c-1 41 -17 73 -48 97s-71 37 -120 38l-161 1
l-52 -295z" />
    <glyph glyph-name="uni042D.c2sc" horiz-adv-x="1134" 
d="M326 407c-7 -107 46 -162 159 -165c57 -2 105 13 144 46c39 32 72 87 98 166l-278 -1l45 260h259c7 136 -36 206 -131 210c-61 1 -112 -13 -152 -44c-41 -31 -65 -74 -73 -131l-328 -1c11 89 43 167 96 233c53 68 121 118 204 154c83 34 174 51 271 48
c127 -3 228 -44 305 -122c77 -77 121 -180 133 -309c8 -97 0 -194 -24 -293s-63 -184 -118 -256c-55 -71 -122 -126 -201 -164s-169 -56 -268 -55c-138 3 -250 42 -335 117c-86 76 -130 179 -133 309z" />
    <glyph glyph-name="uni042E.c2sc" horiz-adv-x="1678" 
d="M994 -17c-87 2 -167 23 -239 61c-72 40 -128 94 -168 163s-60 147 -59 232l-149 -1l-76 -438h-329l202 1165h329l-81 -467l122 -1c54 159 134 280 240 363c105 83 229 124 371 121c100 -1 187 -27 261 -77s128 -118 164 -204c34 -87 47 -184 38 -291l-2 -20
c-18 -181 -85 -328 -201 -441s-257 -168 -423 -165zM1289 611l4 100l-2 33c-12 117 -63 177 -154 182c-72 3 -132 -24 -181 -82s-79 -139 -92 -243c-6 -61 -9 -109 -9 -143c0 -65 14 -118 41 -158c27 -39 67 -60 119 -61c70 -3 129 25 177 85c49 61 80 148 94 261z" />
    <glyph glyph-name="uni042F.c2sc" 
d="M-74 0l354 533c-93 69 -136 157 -129 266c3 73 27 137 69 192c44 55 105 97 184 129c79 30 167 46 264 46l468 -1l-202 -1165h-330l68 388h-119l-251 -388h-376zM574 647l142 -1l45 259l-108 1c-48 -3 -88 -17 -121 -41c-32 -24 -52 -55 -59 -93s-1 -68 17 -90
c20 -21 47 -33 84 -35z" />
    <glyph glyph-name="uni0492.c2sc" horiz-adv-x="1079" 
d="M693 451h-191l-78 -451h-330l78 451h-189l33 191h189l91 523h849l-45 -260h-519l-46 -263h192z" />
    <glyph glyph-name="uni0496.c2sc" horiz-adv-x="1808" 
d="M1358 605l96 -345h237l-103 -591h-264l58 331h-242l-86 419h-93l-73 -419h-329l73 419h-82l-231 -419h-414l396 631l-150 534h364l78 -431h93l75 431h329l-76 -431h80l228 431h391z" />
    <glyph glyph-name="uni049A.c2sc" horiz-adv-x="1223" 
d="M784 597l110 -337h245l-103 -591h-264l58 331h-229l-108 419h-116l-73 -419h-330l202 1165h330l-76 -431h107l238 431h386z" />
    <glyph glyph-name="uni049C.c2sc" horiz-adv-x="1269" 
d="M425 731h54l43 218h168l-45 -218h41l239 434h387l-378 -568l200 -597h-382l-106 420l-43 1l-41 -207h-168l42 208h-54l-79 -422h-329l202 1165l321 1z" />
    <glyph glyph-name="uni04A0.c2sc" horiz-adv-x="1464" 
d="M830 419h-118l-73 -419h-330l157 905h-387l46 260h716l-75 -431h106l238 431h388l-378 -568l200 -597h-383z" />
    <glyph glyph-name="uni04A8.c2sc" horiz-adv-x="1578" 
d="M1421 -14c-163 6 -299 24 -408 55c-116 -42 -230 -62 -342 -61c-130 1 -245 26 -344 74c-99 50 -173 119 -223 208c-48 89 -67 193 -56 311l7 65c18 167 84 302 199 405c114 103 255 156 422 160l-31 -272c-69 -2 -127 -31 -175 -88c-46 -57 -77 -133 -90 -230l-4 -30
c-11 -98 8 -176 58 -233s130 -90 240 -99c-59 124 -83 253 -70 387l2 22c15 163 70 295 164 396c95 100 211 149 348 146c90 -3 167 -25 232 -68c64 -43 111 -103 140 -180c30 -78 40 -165 30 -261l-12 -98c-19 -131 -87 -251 -202 -359l138 1zM904 553
c2 -95 33 -170 92 -224c110 73 172 177 187 312c7 59 10 102 11 130c0 104 -31 158 -94 162c-59 3 -106 -27 -140 -89c-35 -63 -53 -149 -56 -259v-32z" />
    <glyph glyph-name="uni04B0.c2sc" horiz-adv-x="1072" 
d="M552 705l281 460h370l-534 -772l-69 -393h-330l77 438l-254 726l341 1zM849 334h-710l33 191h711z" />
    <glyph glyph-name="uni04B2.c2sc" horiz-adv-x="1239" 
d="M556 811l226 354h392l-441 -594l140 -311h229l-103 -591h-264l58 331h-174l-119 361l-235 -361h-393l453 603l-227 561l360 1z" />
    <glyph glyph-name="uni04B4.c2sc" horiz-adv-x="1736" 
d="M1360 260h223l-122 -591h-310l58 331h-957l157 905h-330l46 260h955l-45 -260h-297l-112 -645h404l158 905h330z" />
    <glyph glyph-name="uni04B8.c2sc" horiz-adv-x="1197" 
d="M1017 0h-330l78 401l-101 -18l-44 -219h-168l46 217c-130 12 -228 57 -294 135c-65 77 -91 181 -76 312l54 337h331l-60 -357l-3 -39c-2 -63 24 -105 78 -126l52 256h168l-51 -262l98 17l94 511h330z" />
    <glyph glyph-name="uni04BA.c2sc" horiz-adv-x="1197" 
d="M176 1165h330l-79 -401c61 15 114 24 160 25c167 1 292 -37 375 -117c84 -78 118 -190 102 -335l-54 -337h-330l55 337c9 67 0 115 -25 145c-25 29 -71 45 -138 46c-41 2 -98 -4 -173 -18l-95 -510h-330z" />
    <glyph glyph-name="uni04BC.c2sc" horiz-adv-x="1599" 
d="M964 -15c-110 1 -209 22 -296 63c-88 40 -155 97 -201 171c-43 68 -62 147 -59 238c-110 8 -192 53 -246 136s-77 199 -70 350l252 -1l-3 -66c-3 -89 27 -142 88 -159c47 151 127 270 241 357c112 87 244 130 394 127c105 -2 195 -26 270 -73c74 -46 128 -112 161 -196
c33 -86 44 -183 31 -292l-28 -185l-767 1c-9 -137 72 -207 244 -210c99 -3 208 13 327 47l52 -246c-67 -38 -167 -58 -300 -61zM1049 942c-66 2 -124 -16 -173 -54s-88 -96 -117 -174l446 -1c9 44 12 79 7 104c-7 38 -25 68 -53 89c-28 22 -65 34 -110 36z" />
    <glyph glyph-name="uni04D8.c2sc" horiz-adv-x="1208" 
d="M615 1200c118 -1 221 -24 311 -72c88 -46 154 -113 198 -200c42 -86 58 -185 45 -298l-11 -91c-13 -106 -49 -202 -109 -287c-60 -86 -137 -153 -231 -200c-95 -47 -196 -70 -303 -68c-159 3 -281 55 -365 156s-116 236 -97 405l29 185l767 -1c9 137 -72 207 -244 210
c-105 3 -213 -13 -324 -47l-56 246c69 38 171 58 306 61zM531 243c133 -5 229 71 290 228l-445 1l-6 -23c-6 -29 -7 -56 -2 -81c7 -39 26 -69 54 -91c30 -22 66 -33 109 -34z" />
    <glyph glyph-name="uni04E0.c2sc" horiz-adv-x="1082" 
d="M1068 1165l-38 -228l-308 -258c76 -15 136 -53 181 -112s65 -131 61 -216c-5 -77 -29 -143 -72 -199c-43 -57 -105 -100 -184 -130c-79 -31 -169 -45 -269 -44c-131 1 -236 34 -315 99s-118 153 -118 265l326 -2c0 -69 48 -103 143 -103c41 0 77 11 107 31
c32 22 50 53 57 96c15 84 -28 128 -129 131l-155 1l39 221l243 186l-487 2l45 260h873z" />
    <glyph glyph-name="uni04E8.c2sc" horiz-adv-x="1190" 
d="M517 -16c-155 3 -275 58 -360 165s-119 244 -104 410l4 41c13 112 48 213 105 304c58 91 132 160 222 208c90 49 189 72 296 69c100 -1 187 -27 261 -77s129 -118 164 -206c35 -86 48 -183 39 -289l-5 -40c-13 -114 -49 -216 -106 -307c-57 -90 -131 -160 -221 -208
c-90 -50 -188 -73 -295 -70zM663 925c-54 2 -102 -13 -144 -47c-42 -32 -80 -89 -113 -169l410 1c2 91 -22 154 -73 190c-21 15 -48 24 -80 25zM535 239c49 -2 94 13 135 46s80 88 116 166l-407 -2c0 -69 14 -121 41 -156s66 -53 115 -54z" />
    <glyph glyph-name="lira.c2sc" horiz-adv-x="1190" 
d="M34 0l39 258l6 -1c23 10 49 29 76 58l-137 -5l34 182l152 -4l7 17l12 47l-165 -3l35 183l140 -1c26 145 81 257 166 336s193 117 326 114c127 -3 225 -38 295 -106c69 -68 103 -164 102 -289l-330 1v43c-3 64 -31 96 -86 96c-67 2 -112 -47 -137 -148l-10 -46h355
l-33 -183l-325 3l-7 -28l-12 -35l336 3l-33 -183l-380 3l-72 -56l647 4l-46 -260h-955z" />
    <glyph glyph-name="Euro.c2sc" horiz-adv-x="1019" 
d="M827 361h-312c3 -41 17 -69 39 -87c24 -16 55 -26 95 -27c35 -1 70 1 105 7l97 17l-5 -258c-74 -20 -143 -29 -208 -28c-127 1 -234 36 -318 105c-86 69 -130 159 -133 272l-160 -1l35 183l131 -3l21 72l-145 -3l34 184h136c48 127 119 224 215 292
c94 69 211 102 350 101c70 -1 145 -13 225 -36l-48 -256c-73 23 -136 34 -190 33c-51 0 -93 -12 -127 -36c-32 -25 -61 -58 -86 -101l325 3l-33 -184l-326 3l-21 -72l336 3z" />
    <glyph glyph-name="uni2116.c2sc" horiz-adv-x="2059" 
d="M1846 243h-577l26 147h577zM1699 1186c97 -3 173 -35 227 -97c56 -62 80 -142 75 -239l-4 -57c-9 -102 -49 -184 -118 -247c-69 -62 -153 -92 -252 -89c-95 1 -170 33 -226 94s-82 139 -78 234l3 46c7 109 46 195 116 260c69 65 155 96 257 95zM1494 791
c-5 -60 5 -106 28 -137c23 -32 58 -49 103 -50c51 -3 95 14 133 50c36 35 59 83 68 142l6 56c5 57 -4 102 -27 134s-58 49 -105 52c-51 1 -94 -15 -130 -48c-37 -33 -60 -80 -69 -140zM1012 0h-320l-268 691l-120 -691h-330l202 1165h320l269 -691l120 691h329z" />
    <glyph glyph-name="uni20BD.c2sc" horiz-adv-x="1360" 
d="M818 118h-297l-21 -118h-330l22 118h-238l41 225l230 -3l21 64l-243 -3l40 225h236l94 539l510 -1c134 -3 241 -39 321 -107s117 -157 111 -268c-5 -79 -29 -147 -73 -205c-45 -57 -107 -102 -188 -135c-80 -33 -169 -49 -267 -49l-212 4l-20 -64l303 3zM609 626l183 -1
c51 1 94 16 130 45s58 65 65 108c7 39 -1 70 -23 91c-23 21 -53 33 -90 35l-216 1z" />
    <glyph glyph-name="three.dnom" horiz-adv-x="754" 
d="M239 474h82c34 1 62 10 83 26c22 16 35 37 40 63c3 19 -2 35 -15 45c-13 12 -32 17 -55 17c-45 3 -76 -14 -93 -50l-227 -1c5 71 35 128 92 168c56 42 128 61 216 60c94 -2 168 -23 222 -62c55 -40 81 -93 79 -158c-2 -78 -56 -139 -161 -183c79 -27 119 -84 119 -170
c-1 -75 -35 -134 -101 -177c-67 -44 -150 -65 -249 -63c-86 1 -157 25 -211 71c-56 45 -84 106 -85 183l215 -1c5 -49 36 -75 95 -76c31 0 58 8 81 24s37 37 42 63c9 49 -19 75 -84 78h-96z" />
    <glyph glyph-name="four.dnom" horiz-adv-x="754" 
d="M556 333l87 1l-34 -177h-76l-28 -157h-220l28 157h-322l12 160l409 471l222 2zM218 337l128 -3l40 195l-21 -26z" />
    <glyph glyph-name="five.dnom" horiz-adv-x="754" 
d="M33 385l125 404h503l-30 -170l-320 1l-53 -129c33 17 72 26 117 27c74 1 133 -19 177 -62c43 -42 64 -102 63 -181c-3 -85 -35 -155 -97 -209c-63 -53 -139 -79 -230 -78c-81 1 -151 24 -208 68s-88 102 -91 173l216 -3c1 -25 9 -41 21 -50c14 -8 33 -11 58 -10
c67 3 105 39 115 109c10 63 -15 96 -75 97c-39 1 -74 -10 -106 -34z" />
    <glyph glyph-name="six.dnom" horiz-adv-x="754" 
d="M594 810l-15 -181h-6c-71 3 -133 -7 -185 -31c-52 -25 -96 -69 -131 -132c48 41 103 61 164 61c69 0 123 -23 164 -70s60 -108 59 -185c-3 -83 -36 -151 -100 -205c-65 -54 -142 -80 -231 -79c-95 1 -169 31 -222 88c-53 58 -77 137 -72 238l3 50c13 137 66 246 162 326
c94 80 221 120 378 120h32zM348 356c-39 0 -77 -14 -113 -43l-8 -43c-2 -15 -2 -29 -1 -42c5 -44 31 -65 79 -63c30 1 56 13 79 35s36 47 40 74c9 53 -17 81 -76 82z" />
    <glyph glyph-name="seven.dnom" horiz-adv-x="754" 
d="M684 651l-418 -651h-248l426 611l-397 2l31 176h630z" />
    <glyph glyph-name="eight.dnom" horiz-adv-x="754" 
d="M655 583c-2 -75 -47 -136 -135 -183c65 -41 96 -99 95 -174c-1 -51 -15 -94 -43 -130c-27 -35 -65 -62 -114 -82c-49 -18 -103 -27 -164 -26c-91 2 -163 23 -216 63c-52 40 -77 93 -75 160c2 83 54 150 155 201c-55 41 -82 93 -81 156c1 73 31 130 89 172
c57 43 129 63 214 62c82 0 149 -20 200 -59c52 -39 77 -93 75 -160zM400 248c4 23 -1 40 -16 50c-15 11 -33 16 -54 16c-24 0 -46 -7 -68 -20c-20 -13 -33 -33 -38 -58c-4 -23 1 -40 14 -52c14 -13 32 -19 53 -19c25 0 49 7 70 23c21 14 34 35 39 60zM436 565
c5 40 -13 60 -54 60c-21 0 -40 -6 -56 -19c-17 -13 -27 -30 -32 -51c-4 -19 -1 -35 9 -47s25 -18 44 -18c22 0 41 7 59 21c16 14 27 32 30 54z" />
    <glyph glyph-name="nine.dnom" horiz-adv-x="754" 
d="M138 159c74 -3 132 6 173 29c41 22 76 59 103 112c-43 -30 -87 -46 -131 -49c-73 -1 -131 21 -173 67c-43 47 -63 109 -60 186c3 85 36 156 102 214c64 57 141 85 228 84c89 -1 159 -32 208 -92c50 -59 72 -137 66 -234l-3 -44c-10 -143 -59 -254 -146 -332
c-87 -77 -213 -116 -377 -116h-13l15 176zM340 410c29 0 57 10 86 30l16 84l2 39c-3 43 -25 63 -67 61c-30 -1 -55 -14 -75 -38c-20 -25 -32 -53 -37 -86c-9 -60 16 -90 75 -90z" />
    <glyph glyph-name="glyph550" horiz-adv-x="984" 
d="M852 651h-710l33 191h711z" />
    <glyph glyph-name="glyph551" horiz-adv-x="664" 
d="M654 1760l312 -1l-320 -215h-235zM260 1307c-1 57 20 104 62 143c44 39 94 58 152 58c57 0 104 -18 143 -54c39 -37 59 -81 60 -133c1 -55 -19 -101 -60 -140s-92 -58 -152 -58c-55 0 -103 17 -143 51c-40 35 -61 79 -62 133zM381 1308c-3 -23 1 -42 13 -59
s30 -25 54 -25c27 0 51 10 70 29c20 19 32 42 36 67c3 23 0 42 -10 60c-11 16 -28 25 -53 26c-27 0 -51 -10 -72 -29s-33 -42 -38 -69z" />
    <glyph glyph-name="E.c2sc" horiz-adv-x="962" 
d="M830 472h-444l-38 -213h528l-46 -259h-856l202 1165h861l-45 -260h-531l-31 -173h445z" />
    <glyph glyph-name="g.ss01" horiz-adv-x="1061" 
d="M1084 928h-104c23 -65 31 -129 25 -194l-2 -23c-13 -114 -68 -205 -166 -273c-98 -69 -217 -102 -356 -101c-43 1 -90 6 -141 15c-19 -23 -29 -39 -31 -50c-8 -38 13 -59 62 -62l199 -3c110 -1 195 -29 256 -81c61 -54 89 -125 86 -216c-3 -72 -31 -136 -82 -193
s-125 -102 -222 -137c-96 -34 -192 -50 -287 -48c-91 0 -174 12 -251 36c-76 23 -132 55 -168 94c-36 40 -53 86 -51 138c2 108 81 193 236 256c-17 37 -24 76 -20 116c4 36 17 70 41 101c22 31 59 62 110 93c-57 35 -100 78 -128 132c-30 52 -43 112 -40 179l3 34
c11 103 59 188 145 253c87 66 198 102 333 109l42 1l45 -3l124 -19h369zM239 6c-38 -31 -61 -62 -68 -95c-8 -33 3 -60 33 -80c31 -20 74 -30 129 -30c74 0 133 11 176 32s69 50 76 86c10 47 -14 73 -71 78l-218 2zM377 703c-4 -40 6 -71 29 -93c23 -21 55 -32 94 -33
c45 0 84 13 116 38c33 25 53 58 60 97l3 22c4 40 -5 71 -28 93s-54 34 -94 35c-45 0 -83 -12 -116 -36c-33 -25 -53 -58 -61 -101z" />
    <glyph glyph-name="alpha.ss02" horiz-adv-x="1157" 
d="M711 139c-84 -110 -186 -164 -306 -161c-107 1 -193 39 -257 112c-64 74 -99 173 -106 298c-3 43 -2 85 2 127l2 17c23 179 80 319 170 422c90 102 203 151 340 148c119 -3 207 -57 265 -163l53 143h289l-206 -560l18 -522h-276zM370 399c3 -107 42 -161 116 -163
c54 -2 99 17 136 58c36 40 60 99 73 176c14 88 20 157 19 207c-3 109 -44 164 -122 166c-68 2 -121 -33 -158 -105s-59 -173 -64 -302v-37z" />
    <glyph glyph-name="R.ss03" horiz-adv-x="1296" 
d="M438 550l-96 -550h-342l252 1456l542 -1c158 0 278 -38 360 -113c83 -75 120 -179 111 -310c-5 -76 -32 -141 -79 -196c-48 -55 -129 -104 -243 -148c67 -25 117 -68 149 -127c31 -59 42 -132 33 -218c-11 -77 -18 -126 -19 -147c-5 -73 11 -128 47 -164l-3 -32l-338 -1
c-37 41 -52 106 -45 193c1 27 8 77 19 150c3 29 4 55 3 80c-7 81 -53 123 -139 126zM484 820l192 -1c66 0 120 17 164 49c42 34 68 78 76 133c9 52 2 95 -20 128c-23 33 -61 52 -115 55l-233 1z" />
    <glyph glyph-name="K.ss04" horiz-adv-x="1295" 
d="M610 576h-167l-101 -576h-342l252 1456h343l-98 -563h121l369 563h432l-517 -688l299 -768h-391z" />
    <glyph glyph-name="k.ss04" horiz-adv-x="1095" 
d="M464 430l-65 2l-81 -432h-330l267 1536h330l-156 -854l49 1l284 399h397l-416 -506l243 -576h-357z" />
    <glyph glyph-name="K.ss05" horiz-adv-x="1289" 
d="M453 635l-111 -635h-342l252 1456h343l-107 -612l483 612h442l-625 -732l383 -724h-413z" />
    <glyph glyph-name="k.ss05" horiz-adv-x="1085" 
d="M397 455l-79 -455h-330l271 1560h330l-149 -857l316 379h396l-457 -525l293 -557h-369z" />
    <glyph glyph-name="D.c2sc" horiz-adv-x="1111" 
d="M-26 0l202 1165l387 -1c102 -3 192 -28 270 -78c78 -48 136 -115 175 -200c38 -85 53 -178 44 -281l-2 -23c-17 -171 -85 -311 -206 -420c-121 -108 -268 -162 -441 -162h-429zM460 905l-111 -646l69 -2c101 0 176 33 226 99c50 65 78 172 84 320l1 40
c0 120 -58 183 -175 188z" />
    <glyph glyph-name="C.c2sc" horiz-adv-x="1134" 
d="M1057 408c-7 -87 -35 -162 -86 -228c-51 -64 -117 -114 -201 -148c-82 -34 -173 -50 -270 -48c-157 4 -275 58 -354 162c-78 105 -108 243 -91 414l2 22c19 182 83 328 193 440c110 110 245 164 406 160c141 -3 253 -42 337 -120c84 -76 131 -182 140 -316l-327 1
c5 113 -51 172 -170 177c-143 4 -226 -110 -250 -342c-7 -73 -11 -125 -10 -157c0 -120 47 -181 142 -183c57 -2 105 10 143 38c38 26 61 69 70 127z" />
    <glyph glyph-name="B.c2sc" horiz-adv-x="1122" 
d="M-26 0l202 1165l427 -1c153 -1 269 -28 351 -81c80 -53 119 -131 114 -233c-6 -127 -76 -217 -211 -272c47 -16 83 -45 110 -86c27 -42 39 -92 38 -150c-5 -113 -50 -199 -135 -256c-85 -58 -206 -87 -363 -86h-533zM385 470l-37 -211l155 -1c60 2 106 16 138 42
s47 59 45 100l-2 14c-9 35 -42 53 -97 55zM422 683l140 -1c101 3 158 41 171 114c7 39 2 67 -17 82c-18 16 -45 25 -81 26l-174 1z" />
    <glyph glyph-name="A.c2sc" horiz-adv-x="1185" 
d="M724 204h-402l-103 -204h-342l640 1165h316l244 -1165h-318zM436 434h249l-57 361v25l-10 -26z" />
    <glyph glyph-name="glyph564" horiz-adv-x="503" 
d="M394 1544l169 -75c-38 -72 -64 -124 -77 -156s-24 -66 -31 -102l-26 -137h-232l22 154c24 153 82 258 175 316z" />
    <glyph glyph-name="glyph565" horiz-adv-x="902" 
d="M949 1461c-3 -78 -39 -139 -106 -182s-155 -64 -264 -62c-103 2 -185 25 -245 67c-62 44 -94 103 -97 178l198 -3c-2 -72 43 -110 134 -113c101 0 159 38 176 113zM385 1634h202l101 -182l-153 -1z" />
    <glyph glyph-name="glyph566" horiz-adv-x="0" 
d="M-129 1414c-5 -54 -21 -98 -50 -132c-29 -35 -66 -53 -111 -54c-29 0 -68 12 -116 36c-47 25 -85 36 -114 34c-35 -2 -61 -31 -77 -87l-138 38c5 53 22 97 51 132c30 35 68 52 114 52c28 0 66 -12 115 -36s87 -35 115 -33c35 2 61 31 76 88zM-350 1655l240 -1l-206 -182
h-192z" />
    <glyph glyph-name="glyph567" horiz-adv-x="1005" 
d="M544 1481l160 -1l240 -215l-192 -2l-116 115l-160 -115l-241 1zM1110 1656l257 -1l-281 -274h-194z" />
    <glyph glyph-name="glyph568" horiz-adv-x="1005" 
d="M952 1265l-190 -2l-118 115l-158 -115l-243 1l310 217l160 -1zM345 1382l-156 -1l-189 273l218 2z" />
    <glyph glyph-name="glyph569" horiz-adv-x="1005" 
d="M952 1265l-194 -2l-114 115l-156 -115l-245 1l312 217l156 -1zM890 1385l-6 108l33 3c56 5 87 23 93 54c6 30 -14 46 -61 49l-37 1l16 121c93 -3 162 -18 208 -45c47 -27 70 -65 69 -113c-2 -65 -46 -106 -133 -123l-5 -56z" />
    <glyph glyph-name="glyph570" horiz-adv-x="1005" 
d="M952 1265l-194 -2l-114 115l-156 -115l-245 1l308 217l164 -1zM931 1688c-11 -104 -51 -157 -120 -159c-23 -1 -54 9 -93 29c-40 21 -66 32 -78 35s-24 3 -36 2c-25 -3 -43 -27 -55 -72l-110 32c12 104 51 157 118 159c21 1 51 -9 91 -29c39 -20 66 -32 78 -35
c14 -3 27 -4 40 -2c25 3 44 30 57 80z" />
    <glyph glyph-name="uni0490.c2sc" horiz-adv-x="958" 
d="M750 1476h329l-100 -571h-518l-157 -905h-330l202 1165h519z" />
    <glyph glyph-name="glyph572" horiz-adv-x="902" 
d="M948 1458c-3 -78 -39 -139 -106 -182s-155 -64 -263 -62c-103 2 -185 25 -247 68c-60 43 -93 102 -96 177l198 -3c-2 -72 43 -110 134 -113c99 0 158 38 177 113zM656 1635l243 -1l-208 -183l-194 1z" />
    <glyph glyph-name="glyph573" horiz-adv-x="902" 
d="M965 1458c-3 -77 -39 -136 -107 -180c-67 -42 -157 -63 -270 -61c-107 2 -192 24 -254 67s-95 101 -98 175l203 -3c-2 -71 44 -106 139 -106c101 0 161 35 179 106zM504 1490l-11 102l48 2c58 4 90 21 96 50s-20 44 -78 45h-40l15 115c110 0 194 -13 250 -38
c58 -25 87 -62 88 -111c0 -61 -50 -99 -151 -116l-6 -48z" />
    <glyph glyph-name="zero.numr" horiz-adv-x="755" 
d="M414 652c-91 3 -161 32 -210 88c-50 56 -72 132 -65 229l19 174c11 101 47 181 108 239c60 58 137 86 232 83c91 -3 162 -33 212 -92s71 -135 63 -229l-19 -174c-11 -101 -47 -180 -108 -237c-60 -57 -137 -84 -232 -81zM555 1152l3 44c0 61 -22 93 -66 94
c-61 2 -98 -47 -111 -148l-23 -180l-3 -44c-2 -26 2 -48 13 -64c11 -18 28 -26 51 -27c60 -2 98 44 113 137z" />
    <glyph glyph-name="four.numr" horiz-adv-x="755" 
d="M671 997l87 1l-34 -177h-76l-28 -157h-220l28 157h-322l12 160l409 471l222 2zM333 1001l128 -3l40 195l-21 -26z" />
    <glyph glyph-name="five.numr" horiz-adv-x="755" 
d="M148 1049l125 404h503l-30 -170l-320 1l-53 -129c33 17 72 26 117 27c74 1 133 -19 176 -62c44 -42 65 -102 64 -181c-3 -85 -35 -155 -98 -209c-62 -53 -138 -79 -229 -78c-81 1 -151 24 -208 68s-88 102 -91 173l216 -3c1 -25 8 -41 22 -50c12 -8 32 -11 57 -10
c67 3 105 39 115 109c10 63 -15 96 -75 97c-39 1 -74 -10 -106 -34z" />
    <glyph glyph-name="six.numr" horiz-adv-x="755" 
d="M709 1474l-15 -181h-6c-71 3 -133 -7 -185 -31c-52 -25 -96 -69 -131 -132c48 41 103 61 164 61c69 0 123 -23 164 -70s60 -108 59 -185c-3 -83 -36 -151 -101 -205c-64 -54 -141 -80 -230 -79c-95 1 -169 31 -222 88c-53 58 -77 137 -72 238l3 50c13 137 67 246 161 326
c96 80 222 120 379 120h32zM463 1020c-39 0 -77 -14 -113 -43l-8 -43c-2 -15 -2 -29 -1 -42c5 -44 31 -65 79 -63c30 1 56 13 79 35s36 47 40 74c9 53 -17 81 -76 82z" />
    <glyph glyph-name="seven.numr" horiz-adv-x="755" 
d="M799 1315l-418 -651h-248l426 611l-397 2l31 176h630z" />
    <glyph glyph-name="eight.numr" horiz-adv-x="755" 
d="M770 1247c-2 -75 -47 -136 -135 -183c65 -41 96 -99 95 -174c-1 -51 -15 -94 -42 -130c-28 -35 -66 -62 -115 -82c-49 -18 -103 -27 -164 -26c-91 2 -163 23 -215 63c-53 40 -78 93 -76 160c2 83 54 150 155 201c-55 41 -82 93 -81 156c1 73 31 130 88 172
c58 43 130 63 215 62c82 0 149 -20 201 -59c51 -39 76 -93 74 -160zM515 912c4 23 -1 40 -16 50c-15 11 -33 16 -54 16c-24 0 -47 -7 -67 -20c-22 -13 -34 -33 -39 -58c-4 -23 1 -40 15 -52c13 -13 31 -19 52 -19c25 0 49 7 70 23c21 14 34 35 39 60zM551 1229
c5 40 -13 60 -54 60c-21 0 -40 -6 -57 -19c-16 -13 -26 -30 -31 -51c-4 -19 -1 -35 9 -47s25 -18 44 -18c22 0 42 7 58 21c18 14 28 32 31 54z" />
    <glyph glyph-name="nine.numr" horiz-adv-x="755" 
d="M253 823c74 -3 132 6 173 29c41 22 76 59 103 112c-43 -30 -87 -46 -131 -49c-73 -1 -131 21 -174 67c-42 47 -62 109 -59 186c3 85 37 156 101 214c66 57 142 85 229 84c89 -1 159 -32 209 -92c49 -59 71 -137 65 -234l-3 -44c-10 -143 -59 -254 -146 -332
c-87 -77 -213 -116 -377 -116h-13l15 176zM455 1074c29 0 57 10 86 30l16 84l2 39c-3 43 -25 63 -67 61c-30 -1 -55 -14 -75 -38c-20 -25 -32 -53 -37 -86c-9 -60 16 -90 75 -90z" />
    <glyph glyph-name="C.ss06" horiz-adv-x="1338" 
d="M1254 494c-14 -106 -50 -198 -108 -276c-58 -79 -134 -139 -228 -180c-95 -41 -199 -61 -313 -59c-144 3 -261 47 -349 133c-90 85 -144 204 -164 356l-5 56c-8 121 4 242 37 362c32 119 83 225 153 316c70 92 152 161 246 208s195 69 302 67c161 -3 287 -49 379 -139
c91 -91 141 -220 149 -387l-341 1c-3 92 -21 157 -54 195c-32 38 -83 58 -152 60c-97 3 -177 -37 -242 -121s-107 -196 -127 -337c-12 -108 -17 -186 -14 -233c3 -87 22 -153 57 -198s83 -68 144 -70c75 -3 138 18 188 61s84 104 103 183z" />
    </font>
</defs>
</svg>
