<?xml version="1.0" standalone="no"?>
<!DOCTYPE svg PUBLIC "-//W3C//DTD SVG 1.1//EN" "http://www.w3.org/Graphics/SVG/1.1/DTD/svg11.dtd" >
<svg xmlns="http://www.w3.org/2000/svg" xmlns:xlink="http://www.w3.org/1999/xlink" version="1.1">
<metadata>
Created by FontForge 20201107 at Wed Nov 23 07:20:53 2022
 By Unknown
Copyright 2011 Google Inc. All Rights Reserved.
</metadata>
<defs>
<font id="Roboto-Bold" horiz-adv-x="1098" >
  <font-face 
    font-family="Roboto"
    font-weight="700"
    font-stretch="normal"
    units-per-em="2048"
    panose-1="2 0 8 3 0 0 0 0 0 0"
    ascent="1536"
    descent="-512"
    x-height="1082"
    cap-height="1456"
    bbox="-1488 -555 2439 2163"
    underline-thickness="100"
    underline-position="-200"
    unicode-range="U+0002-FFFD"
  />
<missing-glyph horiz-adv-x="908" 
d="M808 0h-708v1456h708v-1456zM754 84v1287l-274 -643zM154 1359v-1263l268 632zM194 54h515l-258 606zM451 796l258 606h-515z" />
    <glyph glyph-name=".notdef" horiz-adv-x="908" 
d="M808 0h-708v1456h708v-1456zM754 84v1287l-274 -643zM154 1359v-1263l268 632zM194 54h515l-258 606zM451 796l258 606h-515z" />
    <glyph glyph-name="glyph1" horiz-adv-x="0" 
 />
    <glyph glyph-name="uni0002" horiz-adv-x="0" 
 />
    <glyph glyph-name="uni000D" unicode="&#xd;" horiz-adv-x="510" 
 />
    <glyph glyph-name="space" unicode=" " horiz-adv-x="510" 
 />
    <glyph glyph-name="exclam" unicode="!" horiz-adv-x="557" 
d="M405 447h-240l-34 1009h308zM285 289c49 0 88 -14 117 -43c30 -29 45 -65 45 -110c0 -44 -15 -80 -45 -109c-29 -29 -68 -43 -117 -43c-48 0 -87 14 -117 43c-29 29 -44 65 -44 109s15 80 44 110c30 28 69 43 117 43z" />
    <glyph glyph-name="quotedbl" unicode="&#x22;" horiz-adv-x="657" 
d="M266 1398l-40 -411h-162v549h202v-138zM591 1398l-39 -411h-162v549h201v-138z" />
    <glyph glyph-name="numbersign" unicode="#" horiz-adv-x="1220" 
d="M667 410h-193l-72 -410h-183l72 410h-227v172h257l50 284h-232v174h263l73 416h182l-73 -416h194l73 416h183l-73 -416h219v-174h-250l-50 -284h224v-172h-254l-72 -410h-183zM504 582h193l50 284h-194z" />
    <glyph glyph-name="dollar" unicode="$" horiz-adv-x="1175" 
d="M790 383c0 55 -15 98 -46 131c-30 32 -81 62 -154 89s-135 55 -188 81c-53 28 -98 58 -136 94c-37 34 -66 76 -88 123c-20 47 -31 104 -31 169c0 113 36 205 108 277s168 114 287 126v214h160v-217c118 -17 210 -66 277 -148c67 -81 100 -187 100 -317h-289
c0 80 -16 140 -50 179c-32 40 -77 60 -132 60s-97 -16 -127 -46c-30 -32 -45 -74 -45 -129c0 -51 15 -91 44 -122s84 -62 164 -94c79 -32 145 -62 196 -91c51 -28 95 -60 130 -96c35 -35 62 -76 81 -122c19 -45 28 -98 28 -159c0 -113 -35 -205 -106 -276
s-168 -112 -292 -125v-199h-159v198c-137 15 -242 63 -318 145c-74 83 -112 192 -112 329h289c0 -79 19 -140 57 -183c37 -42 91 -63 162 -63c59 0 105 15 139 47c34 30 51 72 51 125z" />
    <glyph glyph-name="percent" unicode="%" horiz-adv-x="1512" 
d="M95 1176c0 89 29 162 87 218c58 55 134 83 228 83c95 0 172 -27 230 -83c58 -54 87 -129 87 -223v-72c0 -90 -29 -162 -87 -217s-134 -82 -228 -82c-95 0 -171 28 -230 82c-58 56 -87 130 -87 223v71zM287 1099c0 -40 11 -72 35 -97c22 -24 53 -36 90 -36s67 12 89 37
s33 58 33 99v74c0 40 -11 72 -33 97s-52 37 -91 37c-37 0 -66 -12 -89 -36c-23 -25 -34 -59 -34 -102v-73zM791 357c0 90 29 163 88 217c59 56 135 83 228 83c95 0 171 -27 229 -81c59 -55 88 -130 88 -225v-72c0 -89 -29 -161 -86 -217c-57 -54 -134 -82 -229 -82
c-96 0 -173 28 -231 83s-87 129 -87 220v74zM983 279c0 -37 12 -68 36 -94s54 -39 90 -39c81 0 122 45 122 135v76c0 40 -11 72 -34 97c-23 24 -53 36 -90 36s-67 -12 -90 -36c-23 -25 -34 -58 -34 -100v-75zM469 109l-141 76l711 1138l141 -76z" />
    <glyph glyph-name="ampersand" unicode="&#x26;" horiz-adv-x="1344" 
d="M71 392c0 67 19 130 57 187c37 57 106 121 207 191c-43 58 -77 112 -102 164c-25 50 -37 104 -37 159c0 113 36 205 108 277c71 70 168 106 289 106c109 0 198 -32 267 -97c70 -65 105 -145 105 -242c0 -116 -59 -218 -176 -307l-112 -81l251 -292c39 77 59 163 59 256
h246c0 -189 -44 -343 -131 -460l218 -253h-328l-75 86c-107 -71 -231 -106 -370 -106c-144 0 -259 38 -346 114c-87 75 -130 175 -130 298zM561 212c69 0 135 19 197 58l-287 332l-21 -15c-59 -51 -89 -110 -89 -179c0 -58 19 -105 55 -142c38 -36 86 -54 145 -54zM455 1097
c0 -50 29 -113 88 -189l77 51c39 25 66 50 82 74c14 24 22 53 22 86s-12 62 -37 87s-56 37 -95 37c-41 0 -74 -13 -100 -40c-24 -27 -37 -62 -37 -106z" />
    <glyph glyph-name="quotesingle" unicode="'" horiz-adv-x="331" 
d="M275 1389l-29 -404h-183v551h212v-147z" />
    <glyph glyph-name="parenleft" unicode="(" horiz-adv-x="719" 
d="M124 592c0 153 20 298 61 436s101 260 180 366c79 107 165 181 258 222l56 -156c-97 -72 -173 -183 -228 -334s-82 -327 -82 -528v-31c0 -202 27 -379 81 -530s130 -264 229 -339l-56 -153c-91 41 -175 113 -253 215c-79 104 -139 222 -180 357s-63 275 -66 422v53z" />
    <glyph glyph-name="parenright" unicode=")" horiz-adv-x="722" 
d="M609 569c0 -151 -22 -296 -65 -435s-106 -262 -187 -369s-168 -180 -261 -220l-56 153c95 71 169 181 224 330s83 320 85 513v53c0 199 -27 375 -81 527c-55 152 -131 266 -228 342l56 153c91 -39 176 -111 256 -214c81 -103 143 -224 188 -361c44 -137 67 -280 69 -427
v-45z" />
    <glyph glyph-name="asterisk" unicode="*" horiz-adv-x="928" 
d="M341 962l-314 89l59 181l311 -125l-20 349h196l-20 -356l303 123l59 -183l-320 -89l210 -266l-159 -113l-182 292l-180 -282l-159 108z" />
    <glyph glyph-name="plus" unicode="+" horiz-adv-x="1118" 
d="M694 815h361v-261h-361v-408h-275v408h-362v261h362v391h275v-391z" />
    <glyph glyph-name="comma" unicode="," horiz-adv-x="500" 
d="M186 -365l-151 79l36 65c45 81 68 162 69 243v224h244l-1 -200c-1 -74 -19 -149 -56 -224s-84 -138 -141 -187z" />
    <glyph glyph-name="hyphen" unicode="-" horiz-adv-x="794" 
d="M673 507h-563v233h563v-233z" />
    <glyph glyph-name="period" unicode="." horiz-adv-x="595" 
d="M126 142c0 46 16 83 46 112c32 29 70 43 117 43s87 -14 117 -43c32 -29 47 -66 47 -112c0 -45 -15 -82 -46 -110c-31 -29 -70 -43 -118 -43c-47 0 -86 14 -117 43c-31 28 -46 65 -46 110z" />
    <glyph glyph-name="slash" unicode="/" horiz-adv-x="765" 
d="M202 -125h-215l536 1581h215z" />
    <glyph glyph-name="zero" unicode="0" horiz-adv-x="1175" 
d="M1079 602c0 -201 -42 -355 -125 -462s-205 -160 -366 -160c-159 0 -280 52 -364 157s-127 255 -129 450v268c0 203 42 358 127 463c84 105 205 158 364 158s280 -52 364 -156c84 -105 127 -255 129 -450v-268zM790 896c0 121 -16 208 -50 264c-32 54 -84 82 -154 82
c-68 0 -118 -26 -150 -78c-33 -53 -50 -135 -52 -246v-354c0 -119 16 -207 48 -264c33 -58 85 -87 156 -87s122 28 153 83s48 140 49 254v346z" />
    <glyph glyph-name="one" unicode="1" horiz-adv-x="1175" 
d="M801 0h-289v1114l-345 -107v235l603 216h31v-1458z" />
    <glyph glyph-name="two" unicode="2" horiz-adv-x="1175" 
d="M1097 0h-998v198l471 502c65 71 112 132 144 185c30 53 46 103 46 150c0 65 -16 115 -49 153c-33 36 -79 55 -140 55c-65 0 -117 -23 -155 -67c-37 -46 -56 -105 -56 -178h-290c0 89 21 170 64 243c42 73 102 131 179 173c77 41 165 62 263 62c150 0 266 -36 350 -108
c82 -72 124 -174 124 -305c0 -72 -19 -145 -56 -220s-101 -162 -192 -261l-331 -349h626v-233z" />
    <glyph glyph-name="three" unicode="3" horiz-adv-x="1175" 
d="M393 856h154c73 0 128 18 163 55s53 85 53 146c0 59 -17 104 -53 137c-34 33 -83 49 -144 49c-55 0 -102 -15 -139 -45c-37 -31 -56 -70 -56 -119h-289c0 76 20 144 62 205c40 60 98 107 172 141c73 34 154 51 243 51c154 0 275 -37 362 -110c87 -74 131 -176 131 -305
c0 -67 -20 -128 -61 -184s-94 -99 -160 -129c82 -29 143 -73 183 -132c41 -59 61 -128 61 -208c0 -129 -47 -233 -141 -311c-95 -78 -220 -117 -375 -117c-145 0 -264 38 -357 115c-92 77 -138 178 -138 304h289c0 -55 21 -99 61 -134c42 -35 92 -52 152 -52
c69 0 122 18 162 55c38 36 58 84 58 144c0 145 -80 218 -240 218h-153v226z" />
    <glyph glyph-name="four" unicode="4" horiz-adv-x="1175" 
d="M954 548h165v-233h-165v-315h-289v315h-597l-13 182l607 959h292v-908zM343 548h322v514l-19 -33z" />
    <glyph glyph-name="five" unicode="5" horiz-adv-x="1175" 
d="M142 716l84 740h816v-241h-579l-36 -313c69 37 142 55 219 55c139 0 247 -43 326 -129s118 -206 118 -361c0 -94 -20 -178 -60 -253c-39 -74 -96 -132 -170 -172c-74 -42 -161 -62 -262 -62c-88 0 -170 18 -245 54c-75 35 -135 85 -179 150c-43 65 -66 138 -69 221h286
c6 -61 27 -108 63 -141c37 -34 84 -51 143 -51c65 0 116 23 151 71c35 46 53 113 53 199c0 83 -20 146 -61 190s-98 66 -173 66c-69 0 -124 -18 -167 -54l-28 -26z" />
    <glyph glyph-name="six" unicode="6" horiz-adv-x="1175" 
d="M883 1471v-238h-28c-131 -2 -236 -36 -315 -102c-80 -66 -128 -158 -144 -275c77 79 175 118 293 118c127 0 227 -45 302 -136s112 -210 112 -358c0 -95 -21 -180 -61 -257c-42 -77 -100 -136 -174 -179c-76 -43 -160 -64 -255 -64c-153 0 -277 53 -371 160
c-95 107 -142 249 -142 427v104c0 158 30 297 90 419c59 120 145 214 256 280c112 67 242 100 389 101h48zM601 742c-47 0 -89 -12 -127 -36c-38 -25 -66 -57 -84 -97v-88c0 -97 19 -172 57 -227c38 -54 91 -81 160 -81c62 0 112 25 151 73c38 50 57 113 57 191
c0 79 -19 143 -58 192s-91 73 -156 73z" />
    <glyph glyph-name="seven" unicode="7" horiz-adv-x="1175" 
d="M1089 1294l-563 -1294h-305l564 1222h-724v234h1028v-162z" />
    <glyph glyph-name="eight" unicode="8" horiz-adv-x="1175" 
d="M1048 1069c0 -71 -18 -133 -53 -188s-84 -98 -146 -131c71 -34 127 -81 168 -140c41 -60 62 -130 62 -211c0 -129 -44 -231 -132 -307c-88 -74 -208 -112 -359 -112s-271 38 -360 113s-133 177 -133 306c0 81 21 151 62 211s97 107 167 140c-62 33 -110 76 -146 131
c-34 55 -52 117 -52 188c0 124 41 223 124 297c83 73 195 110 337 110c141 0 253 -36 337 -110c82 -72 124 -172 124 -297zM789 420c0 63 -18 114 -55 152s-86 57 -148 57c-61 0 -110 -19 -147 -57c-37 -37 -55 -88 -55 -152c0 -62 18 -112 54 -150s86 -57 150 -57
c63 0 112 18 148 55c35 37 53 87 53 152zM759 1055c0 57 -15 102 -45 137c-30 34 -72 51 -127 51c-54 0 -96 -17 -126 -50s-45 -79 -45 -138c0 -58 15 -105 45 -140s72 -53 127 -53s97 18 126 53c30 35 45 82 45 140z" />
    <glyph glyph-name="nine" unicode="9" horiz-adv-x="1175" 
d="M775 582c-75 -74 -163 -111 -264 -111c-129 0 -232 44 -309 133c-77 88 -116 207 -116 357c0 95 21 183 62 263c42 79 100 141 175 186c75 44 159 66 252 66c96 0 181 -24 256 -72s133 -117 174 -207s62 -193 63 -309v-107c0 -243 -60 -433 -181 -572
s-292 -213 -513 -222l-71 -1v241l64 1c251 11 387 129 408 354zM582 692c47 0 87 12 120 36c34 24 60 53 77 87v119c0 98 -19 174 -56 228s-87 81 -150 81c-58 0 -106 -27 -143 -79c-37 -54 -56 -120 -56 -200c0 -79 18 -144 54 -196c37 -50 88 -76 154 -76z" />
    <glyph glyph-name="colon" unicode=":" horiz-adv-x="578" 
d="M125 142c0 46 15 83 47 112c30 29 69 43 116 43s86 -14 118 -43c30 -29 46 -66 46 -112c0 -45 -15 -82 -46 -110c-31 -29 -70 -43 -118 -43c-47 0 -86 14 -117 43c-31 28 -46 65 -46 110zM125 961c0 46 15 83 47 112c30 29 69 43 116 43s86 -14 118 -43
c30 -29 46 -66 46 -112c0 -45 -15 -82 -46 -111c-31 -28 -70 -42 -118 -42c-47 0 -86 14 -117 42c-31 29 -46 66 -46 111z" />
    <glyph glyph-name="semicolon" unicode=";" horiz-adv-x="537" 
d="M108 961c0 46 16 83 46 112c32 29 70 43 117 43s87 -14 117 -43c32 -29 47 -66 47 -112c0 -45 -15 -82 -46 -111c-31 -28 -70 -42 -118 -42c-47 0 -86 14 -117 42c-31 29 -46 66 -46 111zM208 -365l-151 79l36 65c45 81 68 162 69 243v224h244l-1 -200
c-1 -74 -19 -149 -56 -224s-84 -138 -141 -187z" />
    <glyph glyph-name="less" unicode="&#x3c;" horiz-adv-x="1042" 
d="M345 618l570 -201v-280l-861 365v236l861 365v-280z" />
    <glyph glyph-name="equal" unicode="=" horiz-adv-x="1172" 
d="M1030 746h-894v236h894v-236zM1030 313h-894v236h894v-236z" />
    <glyph glyph-name="greater" unicode="&#x3e;" horiz-adv-x="1058" 
d="M701 621l-581 203v278l871 -365v-235l-871 -366v279z" />
    <glyph glyph-name="question" unicode="?" horiz-adv-x="1019" 
d="M347 447c0 93 11 168 34 223s64 110 125 164c60 53 100 97 120 130c20 34 30 70 30 107c0 113 -52 169 -156 169c-49 0 -89 -15 -118 -46c-30 -30 -46 -72 -47 -125h-290c1 127 43 227 123 299c82 72 192 108 332 108c141 0 251 -34 329 -102c78 -69 117 -165 117 -290
c0 -57 -13 -110 -38 -160c-25 -51 -70 -107 -133 -168l-81 -77c-51 -49 -80 -106 -87 -171l-4 -61h-256zM318 140c0 45 15 82 46 110c30 30 69 44 116 44s86 -14 116 -44c31 -28 46 -65 46 -110c0 -44 -15 -80 -44 -109c-30 -29 -69 -43 -118 -43s-88 14 -118 43
c-29 29 -44 65 -44 109z" />
    <glyph glyph-name="at" unicode="@" horiz-adv-x="1833" 
d="M1749 536c-7 -171 -49 -306 -127 -406c-76 -101 -180 -151 -310 -151c-57 0 -107 12 -148 37c-42 25 -74 60 -95 106c-67 -93 -154 -140 -261 -140c-97 0 -173 41 -226 123s-73 190 -60 325c12 110 40 208 84 294c43 85 98 151 165 197s139 69 216 69
c95 0 177 -22 244 -66l63 -43l-51 -578c-7 -53 -1 -93 17 -121c19 -28 48 -42 88 -42c61 0 113 36 154 108c41 71 64 165 68 281c11 233 -36 411 -140 537c-106 124 -261 187 -467 187c-129 0 -243 -33 -344 -98s-180 -158 -238 -279c-58 -120 -91 -258 -98 -413
c-11 -236 37 -419 142 -547c105 -130 263 -194 473 -194c55 0 113 6 174 18c61 13 113 29 157 50l38 -154c-41 -27 -95 -48 -165 -64c-68 -17 -138 -25 -208 -25c-176 0 -326 35 -450 107c-124 70 -216 175 -278 314c-60 138 -87 303 -79 495c8 184 50 349 126 495
s179 259 311 338c130 80 278 120 443 120c167 0 311 -36 432 -108c121 -71 211 -174 271 -307s86 -288 79 -465zM744 430c-7 -88 0 -155 23 -200c23 -46 59 -69 110 -69c33 0 64 14 93 43s54 70 73 124l42 473c-26 9 -53 13 -80 13c-77 0 -136 -33 -179 -98
c-42 -65 -69 -161 -82 -286z" />
    <glyph glyph-name="A" unicode="A" horiz-adv-x="1378" 
d="M952 300h-526l-100 -300h-319l542 1456h278l545 -1456h-319zM507 543h364l-183 545z" />
    <glyph glyph-name="B" unicode="B" horiz-adv-x="1307" 
d="M130 0v1456h510c177 0 311 -34 402 -102c91 -67 137 -166 137 -297c0 -71 -18 -134 -55 -189c-37 -54 -88 -94 -153 -119c75 -19 133 -56 177 -113c42 -57 64 -126 64 -208c0 -140 -45 -246 -134 -318s-217 -109 -382 -110h-566zM430 634v-393h257c71 0 126 17 165 51
c40 33 60 80 60 139c0 133 -69 201 -207 203h-275zM430 846h222c151 3 227 63 227 181c0 66 -19 113 -57 143c-39 28 -99 43 -182 43h-210v-367z" />
    <glyph glyph-name="C" unicode="C" horiz-adv-x="1340" 
d="M1273 485c-11 -157 -69 -280 -173 -370c-105 -90 -242 -135 -413 -135c-187 0 -333 63 -441 188c-106 126 -160 299 -160 518v89c0 140 25 263 74 370s120 189 212 245c91 58 198 86 319 86c168 0 303 -45 406 -135s162 -216 178 -379h-300c-7 94 -33 162 -79 204
c-44 43 -113 64 -205 64c-100 0 -175 -36 -225 -108c-49 -71 -75 -182 -76 -333v-110c0 -157 24 -272 72 -345c47 -73 122 -109 225 -109c93 0 162 21 207 63c46 43 72 108 79 197h300z" />
    <glyph glyph-name="D" unicode="D" horiz-adv-x="1331" 
d="M130 0v1456h448c128 0 242 -29 344 -86c100 -58 179 -140 236 -246c57 -107 85 -228 85 -363v-67c0 -135 -28 -256 -83 -361c-56 -105 -135 -187 -236 -245s-216 -87 -343 -88h-451zM430 1213v-972h145c117 0 207 38 269 115s94 186 95 329v77c0 148 -31 260 -92 336
c-61 77 -151 115 -269 115h-148z" />
    <glyph glyph-name="E" unicode="E" horiz-adv-x="1152" 
d="M1006 631h-576v-390h676v-241h-976v1456h974v-243h-674v-347h576v-235z" />
    <glyph glyph-name="F" unicode="F" horiz-adv-x="1122" 
d="M1006 595h-576v-595h-300v1456h948v-243h-648v-376h576v-242z" />
    <glyph glyph-name="G" unicode="G" horiz-adv-x="1395" 
d="M1282 184c-54 -65 -130 -115 -229 -150c-99 -36 -208 -54 -328 -54c-126 0 -237 28 -331 82c-96 56 -169 135 -220 240c-52 105 -79 228 -80 369v99c0 145 24 271 74 378c48 106 119 187 212 244c92 56 200 84 324 84c173 0 308 -41 405 -124c97 -82 155 -202 173 -359
h-292c-13 83 -43 144 -88 183c-46 39 -109 58 -189 58c-102 0 -180 -38 -233 -115s-80 -191 -81 -342v-93c0 -153 29 -268 87 -346s143 -117 255 -117c113 0 193 24 241 72v251h-273v221h573v-581z" />
    <glyph glyph-name="H" unicode="H" horiz-adv-x="1447" 
d="M1315 0h-300v624h-585v-624h-300v1456h300v-590h585v590h300v-1456z" />
    <glyph glyph-name="I" unicode="I" horiz-adv-x="597" 
d="M449 0h-300v1456h300v-1456z" />
    <glyph glyph-name="J" unicode="J" horiz-adv-x="1144" 
d="M717 1456h300v-1008c0 -93 -21 -174 -61 -246c-42 -70 -99 -125 -174 -164s-159 -58 -253 -58c-154 0 -274 39 -360 118c-86 78 -129 189 -129 332h302c0 -71 15 -124 45 -158s77 -51 142 -51c57 0 103 20 137 59s51 95 51 168v1008z" />
    <glyph glyph-name="K" unicode="K" horiz-adv-x="1300" 
d="M586 584l-156 -168v-416h-300v1456h300v-660l132 181l371 479h369l-517 -647l532 -809h-357z" />
    <glyph glyph-name="L" unicode="L" horiz-adv-x="1109" 
d="M430 241h637v-241h-937v1456h300v-1215z" />
    <glyph glyph-name="M" unicode="M" horiz-adv-x="1794" 
d="M522 1456l374 -1056l372 1056h394v-1456h-301v398l30 687l-393 -1085h-206l-392 1084l30 -686v-398h-300v1456h392z" />
    <glyph glyph-name="N" unicode="N" horiz-adv-x="1446" 
d="M1314 0h-300l-584 958v-958h-300v1456h300l585 -960v960h299v-1456z" />
    <glyph glyph-name="O" unicode="O" horiz-adv-x="1414" 
d="M1326 695c0 -143 -25 -269 -76 -377s-123 -191 -218 -250c-94 -59 -202 -88 -324 -88c-121 0 -228 29 -323 87s-168 141 -220 249c-52 107 -78 231 -79 371v72c0 143 26 269 78 379c51 108 124 192 218 250c95 59 203 88 324 88s229 -29 324 -88
c94 -58 167 -142 218 -250c52 -110 78 -235 78 -378v-65zM1022 761c0 153 -27 269 -82 348s-133 119 -234 119s-178 -39 -233 -118c-55 -78 -82 -193 -83 -344v-71c0 -149 27 -264 82 -346s133 -123 236 -123c101 0 178 40 232 118c54 80 81 195 82 346v71z" />
    <glyph glyph-name="P" unicode="P" horiz-adv-x="1321" 
d="M430 513v-513h-300v1456h568c109 0 206 -20 288 -60c84 -40 147 -97 192 -170c45 -74 67 -158 67 -252c0 -143 -49 -255 -147 -338c-97 -82 -232 -123 -405 -123h-263zM430 756h268c79 0 140 19 182 56c41 37 62 91 62 160c0 71 -21 129 -63 173s-100 67 -174 68h-275
v-457z" />
    <glyph glyph-name="Q" unicode="Q" horiz-adv-x="1414" 
d="M1324 695c0 -136 -22 -254 -66 -355c-44 -100 -105 -180 -183 -241l242 -190l-191 -169l-310 249c-35 -6 -72 -9 -110 -9c-121 0 -228 29 -323 87s-168 141 -220 249c-52 107 -78 231 -79 371v72c0 143 26 269 78 379c51 108 124 192 218 250c95 59 203 88 324 88
s229 -29 324 -88c94 -58 167 -142 218 -250c52 -110 78 -235 78 -378v-65zM1020 761c0 153 -27 269 -82 348s-133 119 -234 119s-178 -39 -233 -118c-55 -78 -82 -193 -83 -344v-71c0 -149 27 -264 82 -346s133 -123 236 -123c101 0 178 40 232 118c54 80 81 195 82 346v71z
" />
    <glyph glyph-name="R" unicode="R" horiz-adv-x="1307" 
d="M669 533h-239v-533h-300v1456h541c172 0 305 -38 398 -115s140 -185 140 -325c0 -99 -21 -182 -65 -248c-42 -67 -108 -120 -195 -159l315 -595v-14h-322zM430 776h242c75 0 134 19 175 58c41 38 62 91 62 158c0 69 -19 123 -59 162c-38 39 -98 59 -179 59h-241v-437z
" />
    <glyph glyph-name="S" unicode="S" horiz-adv-x="1259" 
d="M885 382c0 57 -20 100 -60 130c-40 31 -112 63 -216 96c-104 34 -186 67 -247 100c-165 89 -248 210 -248 361c0 79 22 149 66 211c45 61 108 109 192 144c82 35 176 52 279 52c104 0 197 -19 278 -56c81 -38 145 -91 189 -160c46 -69 68 -147 68 -234h-300
c0 67 -21 118 -63 156c-42 36 -101 55 -177 55c-73 0 -130 -15 -171 -47c-41 -30 -61 -71 -61 -122c0 -47 24 -87 72 -119c47 -32 117 -62 210 -90c171 -51 295 -115 373 -191s117 -171 117 -284c0 -126 -48 -225 -143 -296c-95 -72 -224 -108 -385 -108
c-112 0 -214 20 -306 62c-92 40 -162 97 -210 168c-49 71 -73 154 -73 248h301c0 -161 96 -241 288 -241c71 0 127 15 167 43c40 30 60 70 60 122z" />
    <glyph glyph-name="T" unicode="T" horiz-adv-x="1267" 
d="M1226 1213h-446v-1213h-300v1213h-440v243h1186v-243z" />
    <glyph glyph-name="U" unicode="U" horiz-adv-x="1348" 
d="M1232 1456v-959c0 -159 -50 -285 -150 -378c-99 -93 -235 -139 -408 -139c-170 0 -305 45 -405 135s-151 214 -153 371v970h300v-961c0 -95 23 -165 68 -209c46 -43 109 -65 190 -65c169 0 254 89 257 266v969h301z" />
    <glyph glyph-name="V" unicode="V" horiz-adv-x="1339" 
d="M668 361l330 1095h334l-507 -1456h-313l-505 1456h333z" />
    <glyph glyph-name="W" unicode="W" horiz-adv-x="1791" 
d="M1264 420l196 1036h299l-323 -1456h-302l-237 974l-237 -974h-302l-323 1456h299l197 -1034l240 1034h254z" />
    <glyph glyph-name="X" unicode="X" horiz-adv-x="1301" 
d="M651 954l273 502h345l-424 -722l435 -734h-349l-280 510l-280 -510h-349l435 734l-424 722h345z" />
    <glyph glyph-name="Y" unicode="Y" horiz-adv-x="1266" 
d="M632 800l303 656h328l-478 -928v-528h-305v528l-478 928h329z" />
    <glyph glyph-name="Z" unicode="Z" horiz-adv-x="1241" 
d="M448 241h734v-241h-1109v176l720 1037h-719v243h1092v-172z" />
    <glyph glyph-name="bracketleft" unicode="[" horiz-adv-x="569" 
d="M552 1471h-142v-1587h142v-223h-432v2033h432v-223z" />
    <glyph glyph-name="backslash" unicode="\" horiz-adv-x="864" 
d="M0 1456h295l608 -1581h-296z" />
    <glyph glyph-name="bracketright" unicode="]" horiz-adv-x="569" 
d="M13 1694h432v-2033h-432v223h143v1587h-143v223z" />
    <glyph glyph-name="asciicircum" unicode="^" horiz-adv-x="895" 
d="M448 1186l-174 -457h-230l299 727h210l299 -727h-229z" />
    <glyph glyph-name="underscore" unicode="_" horiz-adv-x="914" 
d="M912 -226h-911v226h911v-226z" />
    <glyph glyph-name="grave" unicode="`" horiz-adv-x="677" 
d="M565 1226h-237l-276 310h315z" />
    <glyph glyph-name="a" unicode="a" 
d="M738 0c-13 26 -23 58 -29 97c-70 -78 -161 -117 -273 -117c-106 0 -194 31 -264 92c-69 61 -104 139 -104 232c0 115 42 203 128 264c84 61 207 92 368 93h133v62c0 50 -13 90 -39 120c-25 30 -66 45 -121 45c-49 0 -87 -12 -115 -35c-27 -23 -41 -55 -41 -96h-289
c0 63 19 121 58 174s93 95 164 125c71 31 150 46 238 46c133 0 239 -34 318 -100c78 -68 117 -162 117 -283v-469c1 -103 15 -180 43 -233v-17h-292zM499 201c43 0 82 9 118 29c36 18 63 44 80 76v186h-108c-145 0 -222 -50 -231 -150l-1 -17c0 -36 13 -66 38 -89
s60 -35 104 -35z" />
    <glyph glyph-name="b" unicode="b" horiz-adv-x="1153" 
d="M1086 531c0 -173 -37 -309 -111 -405c-74 -98 -177 -146 -310 -146c-117 0 -211 45 -281 135l-13 -115h-260v1536h289v-551c67 78 154 117 263 117c132 0 235 -48 311 -146c74 -96 112 -233 112 -409v-16zM797 552c0 109 -17 189 -52 240c-35 50 -86 75 -155 75
c-92 0 -155 -38 -190 -113v-427c35 -76 99 -114 192 -114s155 46 184 138c14 44 21 111 21 201z" />
    <glyph glyph-name="c" unicode="c" horiz-adv-x="1068" 
d="M561 213c53 0 97 15 130 44s51 68 52 117h271c-1 -73 -21 -140 -60 -202c-39 -60 -93 -108 -162 -142c-68 -33 -143 -50 -226 -50c-155 0 -277 49 -366 148c-89 98 -134 234 -134 407v19c0 167 44 300 133 399s210 149 365 149c135 0 244 -38 326 -116
c81 -76 123 -179 124 -307h-271c-1 56 -19 101 -52 137c-33 34 -77 52 -132 52c-67 0 -118 -24 -153 -74c-34 -48 -51 -128 -51 -238v-30c0 -111 17 -191 51 -240s86 -73 155 -73z" />
    <glyph glyph-name="d" unicode="d" horiz-adv-x="1154" 
d="M66 549c0 169 38 303 114 403c75 100 179 150 310 150c105 0 192 -39 261 -118v552h290v-1536h-261l-14 115c-72 -90 -165 -135 -278 -135c-127 0 -230 50 -306 150c-78 101 -116 240 -116 419zM355 528c0 -101 18 -179 53 -233s87 -81 154 -81c89 0 152 38 189 113v427
c-36 75 -98 113 -187 113c-139 0 -209 -113 -209 -339z" />
    <glyph glyph-name="e" unicode="e" horiz-adv-x="1107" 
d="M609 -20c-159 0 -288 49 -387 146c-100 97 -150 227 -150 389v28c0 109 21 206 63 291c42 86 101 152 179 198c76 47 164 70 263 70c148 0 265 -47 349 -140c86 -93 128 -226 128 -397v-118h-689c9 -71 37 -127 85 -170c46 -43 106 -64 178 -64c111 0 198 40 261 121
l142 -159c-43 -61 -102 -109 -176 -143c-74 -35 -156 -52 -246 -52zM576 868c-57 0 -104 -19 -140 -58c-35 -39 -58 -94 -68 -166h402v23c-1 64 -19 113 -52 149c-33 34 -81 52 -142 52z" />
    <glyph glyph-name="f" unicode="f" horiz-adv-x="734" 
d="M190 0v870h-161v212h161v92c0 121 35 216 104 282c70 68 168 101 293 101c40 0 89 -7 147 -20l-3 -224c-24 6 -53 9 -88 9c-109 0 -163 -51 -163 -153v-87h215v-212h-215v-870h-290z" />
    <glyph glyph-name="g" unicode="g" horiz-adv-x="1169" 
d="M69 549c0 166 39 300 119 401c78 101 185 152 319 152c119 0 211 -41 277 -122l12 102h262v-1046c0 -95 -22 -177 -64 -247c-44 -70 -104 -123 -182 -160s-169 -55 -274 -55c-79 0 -157 16 -232 48c-75 31 -132 72 -171 122l128 176c72 -81 159 -121 262 -121
c77 0 136 21 179 61c43 42 64 100 64 175v58c-67 -75 -154 -113 -263 -113c-130 0 -235 51 -315 152c-81 102 -121 237 -121 405v12zM358 528c0 -98 20 -175 59 -230c39 -56 93 -84 162 -84c88 0 151 33 189 99v455c-39 66 -101 99 -187 99c-69 0 -124 -28 -163 -85
c-40 -57 -60 -141 -60 -254z" />
    <glyph glyph-name="h" unicode="h" horiz-adv-x="1146" 
d="M393 964c77 92 173 138 289 138c235 0 354 -136 357 -409v-693h-289v685c0 62 -13 108 -40 137c-27 30 -71 45 -133 45c-85 0 -146 -33 -184 -98v-769h-289v1536h289v-572z" />
    <glyph glyph-name="i" unicode="i" horiz-adv-x="543" 
d="M416 0h-290v1082h290v-1082zM109 1362c0 43 15 79 43 107c30 28 69 42 119 42c49 0 89 -14 118 -42s44 -64 44 -107c0 -44 -15 -80 -45 -108c-29 -28 -68 -42 -117 -42s-88 14 -117 42c-30 28 -45 64 -45 108z" />
    <glyph glyph-name="j" unicode="j" horiz-adv-x="532" 
d="M417 1082v-1141c0 -119 -32 -212 -95 -279c-63 -66 -155 -99 -274 -99c-50 0 -98 6 -143 17v229c35 -6 65 -9 91 -9c87 0 131 46 131 139v1143h290zM104 1362c0 43 14 79 44 107c28 28 68 42 118 42s90 -14 118 -42c30 -28 44 -64 44 -107c0 -44 -15 -80 -44 -108
c-30 -28 -69 -42 -118 -42s-88 14 -118 42c-29 28 -44 64 -44 108z" />
    <glyph glyph-name="k" unicode="k" horiz-adv-x="1094" 
d="M504 434l-104 -104v-330h-289v1536h289v-851l56 72l277 325h347l-391 -451l425 -631h-332z" />
    <glyph glyph-name="l" unicode="l" horiz-adv-x="543" 
d="M416 0h-290v1536h290v-1536z" />
    <glyph glyph-name="m" unicode="m" horiz-adv-x="1773" 
d="M382 1082l9 -121c77 94 180 141 311 141c139 0 235 -55 287 -165c76 110 184 165 325 165c117 0 205 -34 262 -102c57 -69 86 -172 86 -309v-691h-290v690c0 61 -12 106 -36 134c-24 29 -66 43 -127 43c-87 0 -147 -41 -180 -124l1 -743h-289v689c0 63 -12 108 -37 136
s-67 42 -126 42c-82 0 -141 -34 -178 -102v-765h-289v1082h271z" />
    <glyph glyph-name="n" unicode="n" horiz-adv-x="1147" 
d="M377 1082l9 -125c77 97 181 145 311 145c115 0 200 -34 256 -101s85 -168 86 -302v-699h-289v692c0 61 -13 106 -40 134c-27 27 -71 41 -133 41c-81 0 -142 -35 -183 -104v-763h-289v1082h272z" />
    <glyph glyph-name="o" unicode="o" horiz-adv-x="1158" 
d="M66 551c0 107 21 203 62 287s101 149 178 195c78 46 168 69 271 69c146 0 265 -45 357 -134c93 -89 144 -211 155 -364l2 -74c0 -166 -46 -299 -139 -400c-93 -100 -217 -150 -373 -150s-281 50 -373 150c-94 100 -140 236 -140 408v13zM355 530c0 -103 19 -181 58 -236
c39 -54 94 -81 166 -81c70 0 125 27 164 81c39 53 59 139 59 257c0 101 -20 179 -59 234s-95 83 -166 83s-125 -28 -164 -82c-39 -56 -58 -141 -58 -256z" />
    <glyph glyph-name="p" unicode="p" horiz-adv-x="1153" 
d="M1085 531c0 -167 -38 -300 -113 -401c-76 -100 -178 -150 -307 -150c-109 0 -198 38 -265 114v-510h-289v1498h268l10 -106c70 84 161 126 274 126c133 0 237 -49 311 -148s111 -235 111 -408v-15zM796 552c0 101 -18 178 -54 233c-35 55 -87 82 -155 82
c-91 0 -153 -35 -187 -104v-443c35 -71 98 -107 189 -107c138 0 207 113 207 339z" />
    <glyph glyph-name="q" unicode="q" horiz-adv-x="1157" 
d="M66 551c0 170 38 304 114 403c75 99 179 148 311 148c116 0 208 -44 277 -133l19 113h254v-1498h-290v509c-67 -75 -154 -113 -262 -113c-129 0 -231 50 -308 150s-115 240 -115 421zM355 530c0 -103 18 -182 55 -236c36 -54 87 -81 153 -81c89 0 151 35 188 106v447
c-36 68 -98 102 -186 102c-67 0 -118 -27 -155 -81s-55 -140 -55 -257z" />
    <glyph glyph-name="r" unicode="r" horiz-adv-x="747" 
d="M719 811c-39 5 -74 8 -104 8c-109 0 -181 -37 -215 -111v-708h-289v1082h273l8 -129c58 99 138 149 241 149c32 0 62 -4 90 -13z" />
    <glyph glyph-name="s" unicode="s" horiz-adv-x="1053" 
d="M697 299c0 35 -17 63 -53 83c-34 21 -91 39 -168 55c-257 54 -386 163 -386 328c0 96 40 176 120 241c79 64 183 96 312 96c137 0 247 -32 330 -97c82 -65 123 -149 123 -252h-289c0 41 -13 75 -40 103c-27 26 -68 40 -125 40c-49 0 -86 -11 -113 -33s-40 -50 -40 -84
c0 -32 15 -58 46 -77c30 -20 81 -37 153 -52c72 -14 133 -30 182 -48c153 -56 229 -153 229 -291c0 -99 -42 -179 -127 -239c-85 -62 -194 -92 -328 -92c-91 0 -171 16 -241 48c-71 33 -126 77 -166 134c-40 56 -60 117 -60 182h274c3 -51 22 -91 57 -118s83 -41 142 -41
c55 0 97 11 125 31c29 22 43 49 43 83z" />
    <glyph glyph-name="t" unicode="t" horiz-adv-x="692" 
d="M457 1348v-266h185v-212h-185v-540c0 -40 8 -69 23 -86s45 -26 88 -26c32 0 60 2 85 7v-219c-57 -17 -115 -26 -175 -26c-203 0 -306 102 -310 307v583h-158v212h158v266h289z" />
    <glyph glyph-name="u" unicode="u" horiz-adv-x="1146" 
d="M759 110c-71 -87 -170 -130 -296 -130c-116 0 -205 33 -265 100c-62 67 -93 164 -94 293v709h289v-699c0 -113 51 -169 154 -169c98 0 165 34 202 102v766h290v-1082h-272z" />
    <glyph glyph-name="v" unicode="v" horiz-adv-x="1035" 
d="M516 353l201 729h302l-365 -1082h-276l-365 1082h302z" />
    <glyph glyph-name="w" unicode="w" horiz-adv-x="1505" 
d="M1052 393l142 689h279l-276 -1082h-242l-205 681l-205 -681h-241l-276 1082h279l141 -688l198 688h209z" />
    <glyph glyph-name="x" unicode="x" horiz-adv-x="1042" 
d="M523 759l182 323h309l-308 -530l321 -552h-310l-193 340l-192 -340h-311l321 552l-307 530h310z" />
    <glyph glyph-name="y" unicode="y" horiz-adv-x="1028" 
d="M515 409l200 673h310l-435 -1250l-24 -57c-65 -141 -171 -212 -320 -212c-42 0 -85 6 -128 19v219l44 -1c55 0 96 8 122 25c28 17 49 44 64 83l34 89l-379 1085h311z" />
    <glyph glyph-name="z" unicode="z" horiz-adv-x="1042" 
d="M443 233h529v-233h-898v176l509 672h-494v234h867v-171z" />
    <glyph glyph-name="braceleft" unicode="{" horiz-adv-x="676" 
d="M586 -360c-240 67 -360 222 -360 465v199c0 141 -59 211 -178 211v207c116 0 175 66 178 199v212c0 123 30 223 90 299s150 131 270 165l56 -161c-51 -19 -89 -51 -115 -98c-26 -46 -40 -110 -41 -192v-210c0 -151 -60 -256 -179 -317c119 -61 179 -168 179 -319v-212
c3 -156 55 -251 156 -286z" />
    <glyph glyph-name="bar" unicode="|" horiz-adv-x="518" 
d="M348 -270h-175v1726h175v-1726z" />
    <glyph glyph-name="braceright" unicode="}" horiz-adv-x="676" 
d="M34 -198c101 36 153 133 156 290v212c0 151 61 255 183 314c-122 59 -183 165 -183 319v209c-3 155 -55 252 -156 290l56 161c119 -33 209 -88 269 -163c60 -76 90 -175 91 -298v-215c3 -133 62 -199 178 -199v-207c-119 0 -178 -70 -178 -209v-217
c-5 -233 -125 -383 -360 -449z" />
    <glyph glyph-name="asciitilde" unicode="~" horiz-adv-x="1328" 
d="M1221 793c0 -124 -31 -225 -93 -302s-142 -116 -240 -116c-49 0 -95 9 -138 29c-42 18 -91 54 -146 108c-55 52 -106 79 -153 79c-39 0 -70 -17 -94 -50s-36 -76 -36 -128l-215 2c0 124 30 224 90 299c61 75 141 113 241 113c52 0 99 -10 142 -30s91 -56 145 -107
c55 -52 104 -78 149 -78c39 0 71 18 97 53c24 35 37 78 37 129z" />
    <glyph glyph-name="uni00A0" unicode="&#xa0;" horiz-adv-x="510" 
 />
    <glyph glyph-name="exclamdown" unicode="&#xa1;" horiz-adv-x="578" 
d="M170 639h241l33 -1008h-307zM452 948c0 -45 -15 -81 -46 -110s-69 -43 -116 -43s-85 14 -116 43s-46 65 -46 110s15 81 44 110c30 29 69 43 118 43s88 -14 118 -43c29 -29 44 -65 44 -110z" />
    <glyph glyph-name="cent" unicode="&#xa2;" horiz-adv-x="1178" 
d="M594 213c53 0 97 15 130 44s51 68 52 117h272c-1 -97 -34 -180 -98 -250c-65 -71 -149 -116 -252 -135v-234h-200v233c-125 20 -222 78 -293 174s-106 219 -106 370v22c0 145 35 266 105 363s168 156 294 177v224h200v-225c109 -19 194 -66 256 -140
c61 -74 93 -165 94 -274h-272c-1 57 -19 103 -52 137c-33 35 -77 52 -131 52c-68 0 -119 -25 -153 -74c-34 -50 -51 -128 -52 -235v-33c0 -112 17 -192 52 -240c34 -49 85 -73 154 -73z" />
    <glyph glyph-name="sterling" unicode="&#xa3;" horiz-adv-x="1217" 
d="M564 576l6 -139c0 -82 -21 -147 -62 -196h653v-241h-1059v241h92c48 12 72 72 72 179l-5 156h-162v236h154l-7 227c0 135 41 241 124 319c82 78 192 117 330 117c141 0 252 -37 333 -113c81 -74 121 -176 121 -304h-287c0 57 -15 100 -43 130c-30 30 -71 45 -125 45
c-44 0 -81 -16 -109 -49c-30 -33 -44 -81 -44 -145l9 -227h309v-236h-300z" />
    <glyph glyph-name="currency" unicode="&#xa4;" horiz-adv-x="1418" 
d="M1073 107c-106 -85 -226 -127 -361 -127s-256 42 -361 126l-129 -132l-141 144l135 137c-67 104 -100 222 -100 353c0 136 36 258 109 365l-144 147l141 144l142 -145c103 77 219 115 348 115s246 -39 349 -117l144 148l142 -145l-148 -151c71 -106 107 -226 107 -361
c0 -129 -33 -245 -98 -349l139 -141l-142 -145zM302 608c0 -79 18 -152 54 -220c36 -67 86 -120 150 -160c63 -38 132 -58 206 -58c73 0 142 20 206 58c63 40 113 93 149 160c36 68 54 141 54 220s-18 152 -54 220c-36 66 -86 119 -149 158s-132 58 -206 58
c-75 0 -144 -19 -207 -58s-113 -92 -149 -158c-36 -68 -54 -141 -54 -220z" />
    <glyph glyph-name="yen" unicode="&#xa5;" 
d="M550 892l224 564h313l-322 -714h218v-175h-288v-115h288v-174h-288v-278h-300v278h-306v174h306v115h-306v175h244l-323 714h315z" />
    <glyph glyph-name="brokenbar" unicode="&#xa6;" horiz-adv-x="516" 
d="M128 -270v795h260v-795h-260zM388 698h-260v758h260v-758z" />
    <glyph glyph-name="section" unicode="&#xa7;" horiz-adv-x="1287" 
d="M1180 481c0 -121 -54 -212 -162 -271c90 -68 135 -164 135 -288c0 -117 -46 -208 -137 -274c-92 -67 -219 -100 -380 -100c-171 0 -305 36 -400 107c-96 71 -144 175 -144 310l289 1c0 -59 21 -105 64 -136c43 -32 106 -48 191 -48c75 0 131 12 170 38
c39 24 58 58 58 100c0 43 -22 79 -64 106c-44 27 -126 58 -248 92c-121 33 -213 68 -274 105c-62 37 -108 80 -138 130c-31 50 -46 110 -46 181c0 120 54 211 162 273c-91 69 -136 165 -136 288c0 114 47 206 140 276c94 70 221 105 380 105c165 0 292 -38 383 -113
s136 -180 136 -314h-289c0 58 -20 105 -62 141c-40 35 -97 53 -168 53c-73 0 -130 -13 -170 -39s-60 -62 -60 -107c0 -49 18 -85 56 -110c36 -25 117 -53 240 -86s218 -67 282 -104c66 -37 114 -81 145 -131c31 -52 47 -113 47 -185zM458 704c-50 -28 -75 -75 -75 -141
c0 -46 14 -81 41 -107c28 -24 83 -50 166 -77l222 -67c55 31 82 78 82 140c0 41 -15 75 -46 102c-30 26 -84 52 -163 79z" />
    <glyph glyph-name="dieresis" unicode="&#xa8;" horiz-adv-x="956" 
d="M371 1365c0 -35 -13 -65 -39 -89c-26 -25 -59 -37 -100 -37s-75 12 -100 37s-38 54 -38 89s13 65 38 89c25 26 59 38 100 38s75 -12 100 -38c26 -24 39 -54 39 -89zM581 1365c0 36 13 66 41 91c26 24 59 36 98 36s72 -12 98 -37c27 -25 40 -55 40 -90s-13 -65 -38 -89
c-25 -26 -59 -38 -100 -38s-75 12 -100 38c-26 24 -39 54 -39 89z" />
    <glyph glyph-name="copyright" unicode="&#xa9;" horiz-adv-x="1606" 
d="M1117 596c0 -101 -29 -179 -87 -233c-59 -54 -141 -81 -248 -81s-192 36 -254 106c-64 72 -95 167 -95 287v113c0 116 32 210 95 280c64 72 149 107 254 107c109 0 192 -27 250 -83c57 -54 86 -132 86 -231h-156c0 64 -15 110 -46 137c-31 28 -75 42 -134 42
c-61 0 -109 -22 -142 -68c-34 -44 -51 -105 -52 -180v-123c0 -78 17 -139 51 -185c34 -44 82 -67 143 -67c59 0 104 13 134 41c30 26 45 73 45 138h156zM1383 729c0 111 -25 213 -75 309c-50 94 -121 170 -212 228c-91 56 -191 85 -300 85c-106 0 -204 -27 -296 -82
c-90 -55 -162 -130 -214 -226s-78 -201 -78 -314s26 -218 78 -314c51 -96 122 -172 214 -227c90 -56 189 -84 296 -84s206 28 298 85c91 57 162 133 213 229s76 200 76 311zM86 729c0 135 31 260 94 375c62 115 148 206 258 272c111 67 230 100 358 100s247 -33 358 -100
c110 -66 196 -157 258 -272c63 -115 94 -240 94 -375c0 -136 -32 -262 -95 -377c-63 -116 -150 -207 -259 -273c-110 -66 -229 -99 -356 -99c-129 0 -248 33 -358 100c-109 67 -195 158 -258 273s-94 241 -94 376z" />
    <glyph glyph-name="ordfeminine" unicode="&#xaa;" horiz-adv-x="909" 
d="M604 705c-7 18 -12 41 -17 68c-51 -55 -118 -82 -201 -82c-79 0 -140 21 -184 61c-43 42 -65 97 -65 167c0 73 28 130 84 171c56 40 142 60 257 60h102v51c0 85 -39 127 -116 127c-43 0 -77 -8 -102 -26c-24 -16 -36 -41 -36 -73l-173 14c0 69 29 125 87 169
c59 42 133 64 224 64c90 0 161 -24 213 -72s78 -116 78 -205v-316c0 -65 9 -124 26 -178h-177zM429 835c27 0 54 6 82 19c28 12 51 26 69 43v136h-106c-51 -1 -90 -11 -119 -31s-43 -46 -43 -79c0 -59 39 -88 117 -88z" />
    <glyph glyph-name="guillemotleft" unicode="&#xab;" horiz-adv-x="1023" 
d="M303 524l240 -399h-186l-280 390v19l280 390h186zM688 524l240 -399h-186l-280 390v19l280 390h186z" />
    <glyph glyph-name="logicalnot" unicode="&#xac;" horiz-adv-x="1129" 
d="M961 374h-200v260h-635v171h835v-431z" />
    <glyph glyph-name="uni00AD" unicode="&#xad;" horiz-adv-x="794" 
d="M673 507h-563v233h563v-233z" />
    <glyph glyph-name="registered" unicode="&#xae;" horiz-adv-x="1606" 
d="M86 729c0 135 31 260 94 375c62 115 148 206 258 272c111 67 230 100 358 100s247 -33 358 -100c110 -66 196 -157 258 -272c63 -115 94 -240 94 -375c0 -136 -32 -262 -95 -377c-63 -116 -150 -207 -259 -273c-110 -66 -229 -99 -356 -99c-129 0 -248 33 -358 100
c-109 67 -195 158 -258 273s-94 241 -94 376zM1383 729c0 111 -25 213 -75 309c-50 94 -121 170 -212 228c-91 56 -191 85 -300 85c-106 0 -204 -27 -296 -82c-90 -55 -162 -130 -214 -226s-78 -201 -78 -314s26 -218 78 -314c51 -96 122 -172 214 -227
c90 -56 189 -84 296 -84s206 28 298 85c91 57 162 133 213 229s76 200 76 311zM652 653v-337h-151v850h281c101 0 180 -23 238 -68c58 -46 87 -111 87 -195c0 -75 -38 -133 -113 -174c41 -21 69 -49 86 -87c16 -36 24 -82 24 -137s1 -93 4 -116c2 -23 6 -42 13 -57v-16h-155
c-9 23 -13 87 -13 194c0 51 -11 87 -33 110c-22 22 -59 33 -110 33h-158zM652 787h136c49 0 90 11 122 32c31 21 47 49 47 84c0 47 -12 80 -35 99c-24 20 -67 30 -129 31h-141v-246z" />
    <glyph glyph-name="macron" unicode="&#xaf;" horiz-adv-x="1026" 
d="M858 1287h-690v167h690v-167z" />
    <glyph glyph-name="degree" unicode="&#xb0;" horiz-adv-x="795" 
d="M126 1200c0 76 27 141 81 195s118 81 191 81s136 -27 188 -80c54 -54 80 -119 80 -196s-26 -141 -80 -194c-52 -52 -115 -78 -188 -78c-72 0 -135 26 -190 78c-55 53 -82 117 -82 194zM398 1076c35 0 64 12 88 36c22 23 34 53 34 88s-12 65 -34 90c-24 25 -53 38 -88 38
s-65 -13 -89 -38s-36 -55 -36 -90s12 -64 37 -88c24 -24 53 -36 88 -36z" />
    <glyph glyph-name="plusminus" unicode="&#xb1;" horiz-adv-x="1100" 
d="M677 942h328v-241h-328v-364h-253v364h-335v241h335v343h253v-343zM977 1h-864v235h864v-235z" />
    <glyph glyph-name="uni00B2" unicode="&#xb2;" horiz-adv-x="763" 
d="M693 667h-620v138l287 257c37 33 64 63 80 91c17 28 25 50 25 65c0 56 -32 84 -95 84c-33 0 -60 -10 -80 -31c-19 -21 -29 -47 -29 -78h-206c0 77 29 142 85 195c58 53 131 79 221 79c99 0 175 -21 229 -65c53 -42 80 -104 80 -183c0 -47 -12 -89 -36 -128
s-72 -87 -144 -145l-148 -115h351v-164z" />
    <glyph glyph-name="uni00B3" unicode="&#xb3;" horiz-adv-x="763" 
d="M273 1137h82c79 0 119 29 119 88c0 23 -10 42 -28 56c-20 14 -45 21 -78 21c-28 0 -52 -5 -72 -16c-19 -10 -29 -25 -29 -44h-205c0 68 28 122 84 164c57 40 129 61 216 61c97 0 174 -20 230 -59c58 -40 86 -96 86 -167c0 -79 -45 -136 -135 -169
c100 -27 150 -89 150 -184c0 -70 -31 -126 -91 -168c-62 -43 -141 -64 -240 -64c-95 0 -171 22 -228 66c-57 45 -86 105 -86 181h206c0 -23 11 -42 34 -59c23 -16 51 -24 86 -24c40 0 69 9 86 26c18 18 27 39 27 62c0 61 -41 92 -122 93h-92v136z" />
    <glyph glyph-name="acute" unicode="&#xb4;" horiz-adv-x="679" 
d="M298 1536h315l-277 -310h-235z" />
    <glyph glyph-name="mu" unicode="&#xb5;" horiz-adv-x="1261" 
d="M428 1082v-623c0 -84 14 -146 40 -185c28 -40 74 -60 140 -60c99 0 168 35 205 105v763h289v-1082h-269l-6 68c-59 -59 -134 -89 -225 -89c-68 0 -126 15 -174 45v-440h-289v1498h289z" />
    <glyph glyph-name="paragraph" unicode="&#xb6;" horiz-adv-x="1003" 
d="M650 0v520h-80c-153 0 -274 42 -362 127c-89 85 -133 198 -133 341c0 142 44 256 133 340c89 86 210 128 363 128h298v-1456h-219z" />
    <glyph glyph-name="periodcentered" unicode="&#xb7;" horiz-adv-x="617" 
d="M140 697c0 46 15 83 46 112s70 43 117 43s87 -14 117 -43c32 -29 47 -66 47 -112s-16 -83 -47 -111c-31 -29 -70 -43 -117 -43c-48 0 -87 15 -117 43c-31 30 -46 66 -46 111z" />
    <glyph glyph-name="cedilla" unicode="&#xb8;" horiz-adv-x="548" 
d="M345 7l-11 -58c100 -18 150 -76 150 -173c0 -73 -30 -131 -92 -174c-60 -43 -146 -64 -257 -64l-7 167c75 0 112 27 112 81c0 28 -11 47 -34 58c-22 10 -58 17 -108 20l31 143h216z" />
    <glyph glyph-name="uni00B9" unicode="&#xb9;" horiz-adv-x="763" 
d="M528 667h-204v548l-189 -41v158l374 121h19v-786z" />
    <glyph glyph-name="ordmasculine" unicode="&#xba;" horiz-adv-x="936" 
d="M118 1121c0 107 32 193 96 257c63 66 147 98 250 98s187 -32 251 -97s96 -152 96 -263v-72c0 -106 -31 -192 -94 -256c-63 -66 -146 -98 -251 -98s-190 33 -253 98s-95 152 -95 261v72zM293 1044c0 -65 15 -116 47 -153c30 -37 73 -55 126 -55c52 0 93 18 124 54
c30 36 45 86 46 151v80c0 65 -16 115 -46 152c-32 37 -73 55 -126 55c-52 0 -94 -18 -124 -54c-32 -37 -47 -89 -47 -157v-73z" />
    <glyph glyph-name="guillemotright" unicode="&#xbb;" horiz-adv-x="1023" 
d="M272 923l280 -390v-19l-280 -390h-187l240 399l-240 400h187zM665 923l280 -390v-19l-280 -390h-187l240 399l-240 400h187z" />
    <glyph glyph-name="onequarter" unicode="&#xbc;" horiz-adv-x="1470" 
d="M494 664h-204v548l-189 -41v158l374 121h19v-786zM458 117l-141 76l711 1138l141 -76zM1302 326h88v-167h-88v-159h-205v159h-346l-12 135l357 495h206v-463zM935 326h162v212l-14 -22z" />
    <glyph glyph-name="onehalf" unicode="&#xbd;" horiz-adv-x="1559" 
d="M416 117l-141 76l711 1138l141 -76zM477 670h-204v548l-189 -41v158l374 121h19v-786zM1477 0h-620v138l287 257c37 33 64 63 80 91c17 28 25 50 25 65c0 56 -32 84 -95 84c-33 0 -60 -10 -80 -31c-19 -21 -29 -47 -29 -78h-206c0 77 29 142 85 195c58 53 131 79 221 79
c99 0 175 -22 229 -64c53 -44 80 -105 80 -184c0 -47 -12 -89 -36 -128s-72 -87 -144 -145l-148 -115h351v-164z" />
    <glyph glyph-name="threequarters" unicode="&#xbe;" horiz-adv-x="1655" 
d="M619 117l-141 76l711 1138l141 -76zM1460 326h88v-167h-88v-159h-205v159h-346l-12 135l357 495h206v-463zM1093 326h162v212l-14 -22zM319 1137h82c79 0 119 29 119 88c0 23 -10 42 -28 56c-20 14 -45 21 -78 21c-28 0 -52 -5 -72 -16c-19 -10 -29 -25 -29 -44h-205
c0 68 28 122 84 164c57 40 129 61 216 61c97 0 174 -20 230 -59c58 -40 86 -96 86 -167c0 -79 -45 -136 -135 -169c100 -27 150 -89 150 -184c0 -70 -31 -126 -91 -168c-62 -43 -141 -64 -240 -64c-95 0 -171 22 -228 66c-57 45 -86 105 -86 181h206c0 -23 11 -42 34 -59
c23 -16 51 -24 86 -24c40 0 69 9 86 26c18 18 27 39 27 62c0 61 -41 92 -122 93h-92v136z" />
    <glyph glyph-name="questiondown" unicode="&#xbf;" horiz-adv-x="1019" 
d="M666 643c0 -89 -10 -160 -31 -215s-57 -107 -111 -156c-52 -49 -88 -86 -108 -110c-18 -24 -33 -48 -42 -73c-10 -25 -15 -52 -15 -81c0 -105 51 -157 154 -157c51 0 92 15 123 45c30 30 46 72 47 126h289c-1 -128 -42 -228 -123 -300c-81 -71 -191 -107 -331 -107
c-142 0 -252 34 -331 101c-79 68 -118 165 -118 290c0 106 51 210 153 312l97 93c33 30 57 61 69 94c14 33 21 79 22 138h256zM702 949c0 -45 -15 -81 -46 -110s-69 -43 -116 -43s-85 14 -116 43s-46 65 -46 110s15 81 44 110c30 29 69 43 118 43s88 -14 118 -43
c29 -29 44 -65 44 -110z" />
    <glyph glyph-name="Agrave" unicode="&#xc0;" horiz-adv-x="1378" 
d="M952 300h-526l-100 -300h-319l542 1456h278l545 -1456h-319zM507 543h364l-183 545zM836 1536h-237l-276 310h315z" />
    <glyph glyph-name="Aacute" unicode="&#xc1;" horiz-adv-x="1378" 
d="M952 300h-526l-100 -300h-319l542 1456h278l545 -1456h-319zM507 543h364l-183 545zM750 1846h315l-277 -310h-235z" />
    <glyph glyph-name="Acircumflex" unicode="&#xc2;" horiz-adv-x="1378" 
d="M952 300h-526l-100 -300h-319l542 1456h278l545 -1456h-319zM507 543h364l-183 545zM1076 1566v-12h-230l-154 145l-154 -145h-226v16l296 276h168z" />
    <glyph glyph-name="Atilde" unicode="&#xc3;" horiz-adv-x="1378" 
d="M952 300h-526l-100 -300h-319l542 1456h278l545 -1456h-319zM507 543h364l-183 545zM1068 1832c0 -75 -22 -138 -66 -190c-44 -50 -98 -76 -161 -76c-25 0 -48 3 -67 8c-20 6 -47 18 -82 37s-60 30 -75 35c-15 4 -32 6 -50 6c-23 0 -43 -8 -59 -25
c-17 -17 -25 -40 -25 -71l-168 10c0 74 22 137 65 189c44 52 98 78 161 78c20 0 39 -3 57 -7c17 -6 46 -18 86 -37s68 -31 83 -35s31 -6 48 -6c23 0 43 8 61 24c16 17 25 40 25 71z" />
    <glyph glyph-name="Adieresis" unicode="&#xc4;" horiz-adv-x="1378" 
d="M952 300h-526l-100 -300h-319l542 1456h278l545 -1456h-319zM507 543h364l-183 545zM587 1675c0 -35 -13 -65 -39 -89c-26 -25 -59 -37 -100 -37s-75 12 -100 37s-38 54 -38 89s13 65 38 89c25 26 59 38 100 38s75 -12 100 -38c26 -24 39 -54 39 -89zM797 1675
c0 36 13 66 41 91c26 24 59 36 98 36s72 -12 98 -37c27 -25 40 -55 40 -90s-13 -65 -38 -89c-25 -26 -59 -38 -100 -38s-75 12 -100 38c-26 24 -39 54 -39 89z" />
    <glyph glyph-name="Aring" unicode="&#xc5;" horiz-adv-x="1378" 
d="M952 300h-526l-100 -300h-319l542 1456h278l545 -1456h-319zM507 543h364l-183 545zM470 1730c0 57 22 106 65 145c43 40 96 60 158 60c61 0 114 -20 158 -58c43 -40 65 -88 65 -147c0 -57 -21 -104 -64 -143s-96 -58 -159 -58c-65 0 -118 20 -160 59s-63 87 -63 142z
M585 1730c0 -29 10 -55 29 -75c19 -22 46 -32 79 -32s60 10 79 32c19 20 29 46 29 75c0 31 -10 57 -30 77c-19 22 -45 32 -78 32s-59 -10 -78 -32c-20 -20 -30 -46 -30 -77z" />
    <glyph glyph-name="AE" unicode="&#xc6;" horiz-adv-x="1925" 
d="M1865 0h-897l-14 333h-446l-167 -333h-339l786 1456h1016v-236h-598l15 -355h502v-236h-492l16 -394h618v-235zM633 580h311l-24 570z" />
    <glyph glyph-name="Ccedilla" unicode="&#xc7;" horiz-adv-x="1340" 
d="M1273 485c-11 -157 -69 -280 -173 -370c-105 -90 -242 -135 -413 -135c-187 0 -333 63 -441 188c-106 126 -160 299 -160 518v89c0 140 25 263 74 370s120 189 212 245c91 58 198 86 319 86c168 0 303 -45 406 -135s162 -216 178 -379h-300c-7 94 -33 162 -79 204
c-44 43 -113 64 -205 64c-100 0 -175 -36 -225 -108c-49 -71 -75 -182 -76 -333v-110c0 -157 24 -272 72 -345c47 -73 122 -109 225 -109c93 0 162 21 207 63c46 43 72 108 79 197h300zM797 6l-11 -58c100 -18 150 -76 150 -173c0 -73 -30 -131 -92 -174
c-60 -43 -146 -64 -257 -64l-7 167c75 0 112 27 112 81c0 28 -11 47 -34 58c-22 10 -58 17 -108 20l31 143h216z" />
    <glyph glyph-name="Egrave" unicode="&#xc8;" horiz-adv-x="1152" 
d="M1006 631h-576v-390h676v-241h-976v1456h974v-243h-674v-347h576v-235zM779 1539h-237l-276 310h315z" />
    <glyph glyph-name="Eacute" unicode="&#xc9;" horiz-adv-x="1152" 
d="M1006 631h-576v-390h676v-241h-976v1456h974v-243h-674v-347h576v-235zM693 1849h315l-277 -310h-235z" />
    <glyph glyph-name="Ecircumflex" unicode="&#xca;" horiz-adv-x="1152" 
d="M1006 631h-576v-390h676v-241h-976v1456h974v-243h-674v-347h576v-235zM1019 1569v-12h-230l-154 145l-154 -145h-226v16l296 276h168z" />
    <glyph glyph-name="Edieresis" unicode="&#xcb;" horiz-adv-x="1152" 
d="M1006 631h-576v-390h676v-241h-976v1456h974v-243h-674v-347h576v-235zM530 1678c0 -35 -13 -65 -39 -89c-26 -25 -59 -37 -100 -37s-75 12 -100 37s-38 54 -38 89s13 65 38 89c25 26 59 38 100 38s75 -12 100 -38c26 -24 39 -54 39 -89zM740 1678c0 36 13 66 41 91
c26 24 59 36 98 36s72 -12 98 -37c27 -25 40 -55 40 -90s-13 -65 -38 -89c-25 -26 -59 -38 -100 -38s-75 12 -100 38c-26 24 -39 54 -39 89z" />
    <glyph glyph-name="Igrave" unicode="&#xcc;" horiz-adv-x="597" 
d="M449 0h-300v1456h300v-1456zM443 1539h-237l-276 310h315z" />
    <glyph glyph-name="Iacute" unicode="&#xcd;" horiz-adv-x="597" 
d="M449 0h-300v1456h300v-1456zM356 1849h315l-277 -310h-235z" />
    <glyph glyph-name="Icircumflex" unicode="&#xce;" horiz-adv-x="597" 
d="M449 0h-300v1456h300v-1456zM683 1569v-12h-230l-154 145l-154 -145h-226v16l296 276h168z" />
    <glyph glyph-name="Idieresis" unicode="&#xcf;" horiz-adv-x="597" 
d="M449 0h-300v1456h300v-1456zM194 1678c0 -35 -13 -65 -39 -90c-26 -24 -59 -36 -100 -36s-75 12 -100 37s-38 54 -38 89s13 64 38 90c25 24 59 37 100 37s75 -13 101 -37c25 -26 38 -55 38 -90zM404 1678c0 36 14 66 40 90c28 25 60 37 99 37s72 -12 99 -37
c26 -25 39 -55 39 -90s-13 -64 -38 -90c-25 -24 -59 -37 -100 -37s-75 13 -101 37c-25 26 -38 55 -38 90z" />
    <glyph glyph-name="Eth" unicode="&#xd0;" horiz-adv-x="1361" 
d="M160 0v642h-180v183h180v631h448c128 0 242 -29 344 -86c100 -58 179 -140 236 -246c57 -107 85 -228 85 -363v-67c0 -135 -28 -256 -83 -361c-56 -105 -135 -187 -236 -245s-216 -87 -343 -88h-451zM679 642h-219v-401h145c119 0 209 39 271 117c62 79 93 191 93 336v68
c0 148 -31 260 -92 336c-61 77 -151 115 -269 115h-148v-388h219v-183z" />
    <glyph glyph-name="Ntilde" unicode="&#xd1;" horiz-adv-x="1446" 
d="M1314 0h-300l-584 958v-958h-300v1456h300l585 -960v960h299v-1456zM1102 1832c0 -75 -22 -138 -66 -190c-44 -50 -98 -76 -161 -76c-25 0 -48 3 -67 8c-20 6 -47 18 -82 37s-60 30 -75 35c-15 4 -32 6 -50 6c-23 0 -43 -8 -59 -25c-17 -17 -25 -40 -25 -71l-168 10
c0 74 22 137 65 189c44 52 98 78 161 78c20 0 39 -3 57 -7c17 -6 46 -18 86 -37s68 -31 83 -35s31 -6 48 -6c23 0 43 8 61 24c16 17 25 40 25 71z" />
    <glyph glyph-name="Ograve" unicode="&#xd2;" horiz-adv-x="1414" 
d="M1326 695c0 -143 -25 -269 -76 -377s-123 -191 -218 -250c-94 -59 -202 -88 -324 -88c-121 0 -228 29 -323 87s-168 141 -220 249c-52 107 -78 231 -79 371v72c0 143 26 269 78 379c51 108 124 192 218 250c95 59 203 88 324 88s229 -29 324 -88
c94 -58 167 -142 218 -250c52 -110 78 -235 78 -378v-65zM1022 761c0 153 -27 269 -82 348s-133 119 -234 119s-178 -39 -233 -118c-55 -78 -82 -193 -83 -344v-71c0 -149 27 -264 82 -346s133 -123 236 -123c101 0 178 40 232 118c54 80 81 195 82 346v71zM850 1536h-237
l-276 310h315z" />
    <glyph glyph-name="Oacute" unicode="&#xd3;" horiz-adv-x="1414" 
d="M1326 695c0 -143 -25 -269 -76 -377s-123 -191 -218 -250c-94 -59 -202 -88 -324 -88c-121 0 -228 29 -323 87s-168 141 -220 249c-52 107 -78 231 -79 371v72c0 143 26 269 78 379c51 108 124 192 218 250c95 59 203 88 324 88s229 -29 324 -88
c94 -58 167 -142 218 -250c52 -110 78 -235 78 -378v-65zM1022 761c0 153 -27 269 -82 348s-133 119 -234 119s-178 -39 -233 -118c-55 -78 -82 -193 -83 -344v-71c0 -149 27 -264 82 -346s133 -123 236 -123c101 0 178 40 232 118c54 80 81 195 82 346v71zM764 1846h315
l-277 -310h-235z" />
    <glyph glyph-name="Ocircumflex" unicode="&#xd4;" horiz-adv-x="1414" 
d="M1326 695c0 -143 -25 -269 -76 -377s-123 -191 -218 -250c-94 -59 -202 -88 -324 -88c-121 0 -228 29 -323 87s-168 141 -220 249c-52 107 -78 231 -79 371v72c0 143 26 269 78 379c51 108 124 192 218 250c95 59 203 88 324 88s229 -29 324 -88
c94 -58 167 -142 218 -250c52 -110 78 -235 78 -378v-65zM1022 761c0 153 -27 269 -82 348s-133 119 -234 119s-178 -39 -233 -118c-55 -78 -82 -193 -83 -344v-71c0 -149 27 -264 82 -346s133 -123 236 -123c101 0 178 40 232 118c54 80 81 195 82 346v71zM1090 1566v-12
h-230l-154 145l-154 -145h-226v16l296 276h168z" />
    <glyph glyph-name="Otilde" unicode="&#xd5;" horiz-adv-x="1414" 
d="M1326 695c0 -143 -25 -269 -76 -377s-123 -191 -218 -250c-94 -59 -202 -88 -324 -88c-121 0 -228 29 -323 87s-168 141 -220 249c-52 107 -78 231 -79 371v72c0 143 26 269 78 379c51 108 124 192 218 250c95 59 203 88 324 88s229 -29 324 -88
c94 -58 167 -142 218 -250c52 -110 78 -235 78 -378v-65zM1022 761c0 153 -27 269 -82 348s-133 119 -234 119s-178 -39 -233 -118c-55 -78 -82 -193 -83 -344v-71c0 -149 27 -264 82 -346s133 -123 236 -123c101 0 178 40 232 118c54 80 81 195 82 346v71zM1082 1832
c0 -75 -22 -138 -66 -190c-44 -50 -98 -76 -161 -76c-25 0 -48 3 -67 8c-20 6 -47 18 -82 37s-60 30 -75 35c-15 4 -32 6 -50 6c-23 0 -43 -8 -59 -25c-17 -17 -25 -40 -25 -71l-168 10c0 74 22 137 65 189c44 52 98 78 161 78c20 0 39 -3 57 -7c17 -6 46 -18 86 -37
s68 -31 83 -35s31 -6 48 -6c23 0 43 8 61 24c16 17 25 40 25 71z" />
    <glyph glyph-name="Odieresis" unicode="&#xd6;" horiz-adv-x="1414" 
d="M1326 695c0 -143 -25 -269 -76 -377s-123 -191 -218 -250c-94 -59 -202 -88 -324 -88c-121 0 -228 29 -323 87s-168 141 -220 249c-52 107 -78 231 -79 371v72c0 143 26 269 78 379c51 108 124 192 218 250c95 59 203 88 324 88s229 -29 324 -88
c94 -58 167 -142 218 -250c52 -110 78 -235 78 -378v-65zM1022 761c0 153 -27 269 -82 348s-133 119 -234 119s-178 -39 -233 -118c-55 -78 -82 -193 -83 -344v-71c0 -149 27 -264 82 -346s133 -123 236 -123c101 0 178 40 232 118c54 80 81 195 82 346v71zM601 1675
c0 -35 -13 -65 -39 -89c-26 -25 -59 -37 -100 -37s-75 12 -100 37s-38 54 -38 89s13 65 38 89c25 26 59 38 100 38s75 -12 100 -38c26 -24 39 -54 39 -89zM811 1675c0 36 13 66 41 91c26 24 59 36 98 36s72 -12 98 -37c27 -25 40 -55 40 -90s-13 -65 -38 -89
c-25 -26 -59 -38 -100 -38s-75 12 -100 38c-26 24 -39 54 -39 89z" />
    <glyph glyph-name="multiply" unicode="&#xd7;" horiz-adv-x="1088" 
d="M65 373l307 313l-307 313l170 168l304 -311l305 311l170 -168l-307 -313l307 -313l-170 -168l-305 310l-304 -310z" />
    <glyph glyph-name="Oslash" unicode="&#xd8;" horiz-adv-x="1411" 
d="M1333 695c0 -143 -25 -269 -76 -377s-123 -191 -217 -250c-95 -59 -203 -88 -325 -88c-109 0 -208 23 -295 70l-85 -145h-188l143 242c-131 130 -197 315 -197 555v57c0 143 26 269 77 379c52 108 125 192 220 250c94 59 202 88 323 88c117 0 221 -27 314 -82l74 124h187
l-134 -227c119 -132 179 -311 179 -537v-59zM397 695c0 -115 16 -210 49 -285l447 757c-49 41 -109 61 -180 61c-101 0 -178 -39 -233 -118c-55 -78 -82 -193 -83 -344v-71zM1030 761c0 101 -13 186 -38 256l-440 -744c47 -31 101 -47 163 -47c101 0 178 40 233 118
c54 80 81 195 82 346v71z" />
    <glyph glyph-name="Ugrave" unicode="&#xd9;" horiz-adv-x="1348" 
d="M1232 1456v-959c0 -159 -50 -285 -150 -378c-99 -93 -235 -139 -408 -139c-170 0 -305 45 -405 135s-151 214 -153 371v970h300v-961c0 -95 23 -165 68 -209c46 -43 109 -65 190 -65c169 0 254 89 257 266v969h301zM814 1536h-237l-276 310h315z" />
    <glyph glyph-name="Uacute" unicode="&#xda;" horiz-adv-x="1348" 
d="M1232 1456v-959c0 -159 -50 -285 -150 -378c-99 -93 -235 -139 -408 -139c-170 0 -305 45 -405 135s-151 214 -153 371v970h300v-961c0 -95 23 -165 68 -209c46 -43 109 -65 190 -65c169 0 254 89 257 266v969h301zM728 1846h315l-277 -310h-235z" />
    <glyph glyph-name="Ucircumflex" unicode="&#xdb;" horiz-adv-x="1348" 
d="M1232 1456v-959c0 -159 -50 -285 -150 -378c-99 -93 -235 -139 -408 -139c-170 0 -305 45 -405 135s-151 214 -153 371v970h300v-961c0 -95 23 -165 68 -209c46 -43 109 -65 190 -65c169 0 254 89 257 266v969h301zM1054 1566v-12h-230l-154 145l-154 -145h-226v16
l296 276h168z" />
    <glyph glyph-name="Udieresis" unicode="&#xdc;" horiz-adv-x="1348" 
d="M1232 1456v-959c0 -159 -50 -285 -150 -378c-99 -93 -235 -139 -408 -139c-170 0 -305 45 -405 135s-151 214 -153 371v970h300v-961c0 -95 23 -165 68 -209c46 -43 109 -65 190 -65c169 0 254 89 257 266v969h301zM565 1675c0 -35 -13 -65 -39 -89
c-26 -25 -59 -37 -100 -37s-75 12 -100 37s-38 54 -38 89s13 65 38 89c25 26 59 38 100 38s75 -12 100 -38c26 -24 39 -54 39 -89zM775 1675c0 36 13 66 41 91c26 24 59 36 98 36s72 -12 98 -37c27 -25 40 -55 40 -90s-13 -65 -38 -89c-25 -26 -59 -38 -100 -38
s-75 12 -100 38c-26 24 -39 54 -39 89z" />
    <glyph glyph-name="Yacute" unicode="&#xdd;" horiz-adv-x="1266" 
d="M632 800l303 656h328l-478 -928v-528h-305v528l-478 928h329zM693 1846h315l-277 -310h-235z" />
    <glyph glyph-name="Thorn" unicode="&#xde;" horiz-adv-x="1246" 
d="M422 1456v-267h230c108 -1 202 -19 282 -57c79 -36 140 -89 183 -158c43 -68 64 -147 64 -236c0 -135 -46 -243 -139 -324c-92 -81 -218 -124 -378 -127h-242v-287h-289v1456h289zM422 956v-436h223c78 0 139 20 182 59s65 92 65 157s-21 118 -64 158
c-42 40 -100 61 -175 62h-231z" />
    <glyph glyph-name="germandbls" unicode="&#xdf;" horiz-adv-x="1292" 
d="M424 0h-289v1101c0 147 41 260 124 339s199 119 350 119c127 0 229 -33 307 -99c76 -67 115 -157 115 -271c0 -72 -18 -137 -53 -195c-36 -58 -54 -113 -54 -164c0 -25 10 -50 30 -76c21 -27 60 -66 119 -118c101 -89 151 -183 151 -282c0 -118 -38 -210 -115 -276
c-77 -65 -187 -98 -330 -98c-54 0 -107 5 -160 16s-92 24 -119 40l54 229c65 -35 138 -52 219 -52c53 0 93 12 121 37c28 24 42 57 42 99c0 31 -12 61 -34 89c-24 30 -62 66 -117 110c-100 80 -150 170 -150 270c0 64 18 126 55 186c37 61 55 117 55 170
c0 47 -15 84 -45 112c-29 27 -67 41 -112 41c-106 0 -161 -71 -164 -213v-1114z" />
    <glyph glyph-name="agrave" unicode="&#xe0;" 
d="M738 0c-13 26 -23 58 -29 97c-70 -78 -161 -117 -273 -117c-106 0 -194 31 -264 92c-69 61 -104 139 -104 232c0 115 42 203 128 264c84 61 207 92 368 93h133v62c0 50 -13 90 -39 120c-25 30 -66 45 -121 45c-49 0 -87 -12 -115 -35c-27 -23 -41 -55 -41 -96h-289
c0 63 19 121 58 174s93 95 164 125c71 31 150 46 238 46c133 0 239 -34 318 -100c78 -68 117 -162 117 -283v-469c1 -103 15 -180 43 -233v-17h-292zM499 201c43 0 82 9 118 29c36 18 63 44 80 76v186h-108c-145 0 -222 -50 -231 -150l-1 -17c0 -36 13 -66 38 -89
s60 -35 104 -35zM695 1226h-237l-276 310h315z" />
    <glyph glyph-name="aacute" unicode="&#xe1;" 
d="M738 0c-13 26 -23 58 -29 97c-70 -78 -161 -117 -273 -117c-106 0 -194 31 -264 92c-69 61 -104 139 -104 232c0 115 42 203 128 264c84 61 207 92 368 93h133v62c0 50 -13 90 -39 120c-25 30 -66 45 -121 45c-49 0 -87 -12 -115 -35c-27 -23 -41 -55 -41 -96h-289
c0 63 19 121 58 174s93 95 164 125c71 31 150 46 238 46c133 0 239 -34 318 -100c78 -68 117 -162 117 -283v-469c1 -103 15 -180 43 -233v-17h-292zM499 201c43 0 82 9 118 29c36 18 63 44 80 76v186h-108c-145 0 -222 -50 -231 -150l-1 -17c0 -36 13 -66 38 -89
s60 -35 104 -35zM609 1536h315l-277 -310h-235z" />
    <glyph glyph-name="acircumflex" unicode="&#xe2;" 
d="M738 0c-13 26 -23 58 -29 97c-70 -78 -161 -117 -273 -117c-106 0 -194 31 -264 92c-69 61 -104 139 -104 232c0 115 42 203 128 264c84 61 207 92 368 93h133v62c0 50 -13 90 -39 120c-25 30 -66 45 -121 45c-49 0 -87 -12 -115 -35c-27 -23 -41 -55 -41 -96h-289
c0 63 19 121 58 174s93 95 164 125c71 31 150 46 238 46c133 0 239 -34 318 -100c78 -68 117 -162 117 -283v-469c1 -103 15 -180 43 -233v-17h-292zM499 201c43 0 82 9 118 29c36 18 63 44 80 76v186h-108c-145 0 -222 -50 -231 -150l-1 -17c0 -36 13 -66 38 -89
s60 -35 104 -35zM935 1256v-12h-230l-154 145l-154 -145h-226v16l296 276h168z" />
    <glyph glyph-name="atilde" unicode="&#xe3;" 
d="M738 0c-13 26 -23 58 -29 97c-70 -78 -161 -117 -273 -117c-106 0 -194 31 -264 92c-69 61 -104 139 -104 232c0 115 42 203 128 264c84 61 207 92 368 93h133v62c0 50 -13 90 -39 120c-25 30 -66 45 -121 45c-49 0 -87 -12 -115 -35c-27 -23 -41 -55 -41 -96h-289
c0 63 19 121 58 174s93 95 164 125c71 31 150 46 238 46c133 0 239 -34 318 -100c78 -68 117 -162 117 -283v-469c1 -103 15 -180 43 -233v-17h-292zM499 201c43 0 82 9 118 29c36 18 63 44 80 76v186h-108c-145 0 -222 -50 -231 -150l-1 -17c0 -36 13 -66 38 -89
s60 -35 104 -35zM927 1523c0 -75 -22 -138 -66 -190c-44 -50 -98 -76 -161 -76c-25 0 -48 3 -67 8c-20 6 -47 18 -82 37s-60 30 -75 35c-15 4 -32 6 -50 6c-23 0 -43 -8 -59 -25c-17 -17 -25 -40 -25 -71l-168 10c0 74 22 137 65 189c44 52 98 78 161 78c20 0 39 -3 57 -7
c17 -6 46 -18 86 -37s68 -31 83 -35s31 -6 48 -6c23 0 43 8 61 24c16 17 25 40 25 71z" />
    <glyph glyph-name="adieresis" unicode="&#xe4;" 
d="M738 0c-13 26 -23 58 -29 97c-70 -78 -161 -117 -273 -117c-106 0 -194 31 -264 92c-69 61 -104 139 -104 232c0 115 42 203 128 264c84 61 207 92 368 93h133v62c0 50 -13 90 -39 120c-25 30 -66 45 -121 45c-49 0 -87 -12 -115 -35c-27 -23 -41 -55 -41 -96h-289
c0 63 19 121 58 174s93 95 164 125c71 31 150 46 238 46c133 0 239 -34 318 -100c78 -68 117 -162 117 -283v-469c1 -103 15 -180 43 -233v-17h-292zM499 201c43 0 82 9 118 29c36 18 63 44 80 76v186h-108c-145 0 -222 -50 -231 -150l-1 -17c0 -36 13 -66 38 -89
s60 -35 104 -35zM446 1365c0 -35 -13 -65 -39 -89c-26 -25 -59 -37 -100 -37s-75 12 -100 37s-38 54 -38 89s13 65 38 89c25 26 59 38 100 38s75 -12 100 -38c26 -24 39 -54 39 -89zM656 1365c0 36 13 66 41 91c26 24 59 36 98 36s72 -12 98 -37c27 -25 40 -55 40 -90
s-13 -65 -38 -89c-25 -26 -59 -38 -100 -38s-75 12 -100 38c-26 24 -39 54 -39 89z" />
    <glyph glyph-name="aring" unicode="&#xe5;" 
d="M738 0c-13 26 -23 58 -29 97c-70 -78 -161 -117 -273 -117c-106 0 -194 31 -264 92c-69 61 -104 139 -104 232c0 115 42 203 128 264c84 61 207 92 368 93h133v62c0 50 -13 90 -39 120c-25 30 -66 45 -121 45c-49 0 -87 -12 -115 -35c-27 -23 -41 -55 -41 -96h-289
c0 63 19 121 58 174s93 95 164 125c71 31 150 46 238 46c133 0 239 -34 318 -100c78 -68 117 -162 117 -283v-469c1 -103 15 -180 43 -233v-17h-292zM499 201c43 0 82 9 118 29c36 18 63 44 80 76v186h-108c-145 0 -222 -50 -231 -150l-1 -17c0 -36 13 -66 38 -89
s60 -35 104 -35zM329 1420c0 57 22 106 65 145c43 40 96 60 158 60c61 0 114 -20 158 -58c43 -40 65 -88 65 -147c0 -57 -21 -104 -64 -143s-96 -58 -159 -58c-65 0 -118 20 -160 59s-63 87 -63 142zM444 1420c0 -29 10 -55 29 -75c19 -22 46 -32 79 -32s60 10 79 32
c19 20 29 46 29 75c0 31 -10 57 -30 77c-19 22 -45 32 -78 32s-59 -10 -78 -32c-20 -20 -30 -46 -30 -77z" />
    <glyph glyph-name="ae" unicode="&#xe6;" horiz-adv-x="1729" 
d="M1246 -20c-165 0 -293 49 -386 147c-43 -46 -98 -82 -166 -108c-69 -26 -145 -39 -228 -39c-124 0 -222 30 -293 89s-107 143 -107 250c0 105 41 186 124 243s205 86 367 87h168v57c0 51 -13 90 -41 119c-26 29 -66 43 -117 43c-55 0 -98 -12 -129 -36
c-32 -23 -48 -52 -48 -87l-289 19c0 99 43 180 131 244c86 62 199 94 338 94c141 0 250 -37 327 -110c84 75 193 111 326 110c141 0 252 -44 333 -132c81 -87 121 -208 121 -363v-157h-668c7 -77 34 -136 81 -177c46 -41 108 -61 186 -61c51 0 99 5 142 16
c44 11 95 31 153 61l77 -189c-49 -37 -109 -67 -180 -88c-72 -21 -146 -32 -222 -32zM521 192c33 0 68 8 107 22c39 16 71 35 97 58v189h-164c-63 -1 -113 -15 -151 -43c-36 -28 -55 -62 -55 -103c0 -37 13 -67 41 -89c26 -23 68 -34 125 -34zM1223 868
c-60 0 -108 -19 -145 -58c-36 -38 -58 -93 -67 -166h382v28c0 63 -15 111 -43 145c-30 34 -72 51 -127 51z" />
    <glyph glyph-name="ccedilla" unicode="&#xe7;" horiz-adv-x="1068" 
d="M561 213c53 0 97 15 130 44s51 68 52 117h271c-1 -73 -21 -140 -60 -202c-39 -60 -93 -108 -162 -142c-68 -33 -143 -50 -226 -50c-155 0 -277 49 -366 148c-89 98 -134 234 -134 407v19c0 167 44 300 133 399s210 149 365 149c135 0 244 -38 326 -116
c81 -76 123 -179 124 -307h-271c-1 56 -19 101 -52 137c-33 34 -77 52 -132 52c-67 0 -118 -24 -153 -74c-34 -48 -51 -128 -51 -238v-30c0 -111 17 -191 51 -240s86 -73 155 -73zM666 6l-11 -58c100 -18 150 -76 150 -173c0 -73 -30 -131 -92 -174
c-60 -43 -146 -64 -257 -64l-7 167c75 0 112 27 112 81c0 28 -11 47 -34 58c-22 10 -58 17 -108 20l31 143h216z" />
    <glyph glyph-name="egrave" unicode="&#xe8;" horiz-adv-x="1107" 
d="M609 -20c-159 0 -288 49 -387 146c-100 97 -150 227 -150 389v28c0 109 21 206 63 291c42 86 101 152 179 198c76 47 164 70 263 70c148 0 265 -47 349 -140c86 -93 128 -226 128 -397v-118h-689c9 -71 37 -127 85 -170c46 -43 106 -64 178 -64c111 0 198 40 261 121
l142 -159c-43 -61 -102 -109 -176 -143c-74 -35 -156 -52 -246 -52zM576 868c-57 0 -104 -19 -140 -58c-35 -39 -58 -94 -68 -166h402v23c-1 64 -19 113 -52 149c-33 34 -81 52 -142 52zM688 1226h-237l-276 310h315z" />
    <glyph glyph-name="eacute" unicode="&#xe9;" horiz-adv-x="1107" 
d="M609 -20c-159 0 -288 49 -387 146c-100 97 -150 227 -150 389v28c0 109 21 206 63 291c42 86 101 152 179 198c76 47 164 70 263 70c148 0 265 -47 349 -140c86 -93 128 -226 128 -397v-118h-689c9 -71 37 -127 85 -170c46 -43 106 -64 178 -64c111 0 198 40 261 121
l142 -159c-43 -61 -102 -109 -176 -143c-74 -35 -156 -52 -246 -52zM576 868c-57 0 -104 -19 -140 -58c-35 -39 -58 -94 -68 -166h402v23c-1 64 -19 113 -52 149c-33 34 -81 52 -142 52zM602 1536h315l-277 -310h-235z" />
    <glyph glyph-name="ecircumflex" unicode="&#xea;" horiz-adv-x="1107" 
d="M609 -20c-159 0 -288 49 -387 146c-100 97 -150 227 -150 389v28c0 109 21 206 63 291c42 86 101 152 179 198c76 47 164 70 263 70c148 0 265 -47 349 -140c86 -93 128 -226 128 -397v-118h-689c9 -71 37 -127 85 -170c46 -43 106 -64 178 -64c111 0 198 40 261 121
l142 -159c-43 -61 -102 -109 -176 -143c-74 -35 -156 -52 -246 -52zM576 868c-57 0 -104 -19 -140 -58c-35 -39 -58 -94 -68 -166h402v23c-1 64 -19 113 -52 149c-33 34 -81 52 -142 52zM928 1256v-12h-230l-154 145l-154 -145h-226v16l296 276h168z" />
    <glyph glyph-name="edieresis" unicode="&#xeb;" horiz-adv-x="1107" 
d="M609 -20c-159 0 -288 49 -387 146c-100 97 -150 227 -150 389v28c0 109 21 206 63 291c42 86 101 152 179 198c76 47 164 70 263 70c148 0 265 -47 349 -140c86 -93 128 -226 128 -397v-118h-689c9 -71 37 -127 85 -170c46 -43 106 -64 178 -64c111 0 198 40 261 121
l142 -159c-43 -61 -102 -109 -176 -143c-74 -35 -156 -52 -246 -52zM576 868c-57 0 -104 -19 -140 -58c-35 -39 -58 -94 -68 -166h402v23c-1 64 -19 113 -52 149c-33 34 -81 52 -142 52zM439 1365c0 -35 -13 -65 -39 -89c-26 -25 -59 -37 -100 -37s-75 12 -100 37
s-38 54 -38 89s13 65 38 89c25 26 59 38 100 38s75 -12 100 -38c26 -24 39 -54 39 -89zM649 1365c0 36 13 66 41 91c26 24 59 36 98 36s72 -12 98 -37c27 -25 40 -55 40 -90s-13 -65 -38 -89c-25 -26 -59 -38 -100 -38s-75 12 -100 38c-26 24 -39 54 -39 89z" />
    <glyph glyph-name="igrave" unicode="&#xec;" horiz-adv-x="561" 
d="M423 0h-289v1082h289v-1082zM425 1211h-237l-276 310h315z" />
    <glyph glyph-name="iacute" unicode="&#xed;" horiz-adv-x="561" 
d="M423 0h-289v1082h289v-1082zM338 1521h315l-277 -310h-235z" />
    <glyph glyph-name="icircumflex" unicode="&#xee;" horiz-adv-x="561" 
d="M423 0h-289v1082h289v-1082zM665 1241v-12h-230l-154 145l-154 -145h-226v16l296 276h168z" />
    <glyph glyph-name="idieresis" unicode="&#xef;" horiz-adv-x="561" 
d="M423 0h-289v1082h289v-1082zM176 1350c0 -35 -13 -65 -39 -90c-26 -24 -59 -36 -100 -36s-75 12 -100 37s-38 54 -38 89s13 64 38 90c25 24 59 37 100 37s75 -13 101 -37c25 -26 38 -55 38 -90zM386 1350c0 36 14 66 40 90c28 25 60 37 99 37s72 -12 99 -37
c26 -25 39 -55 39 -90s-13 -64 -38 -90c-25 -24 -59 -37 -100 -37s-75 13 -101 37c-25 26 -38 55 -38 90z" />
    <glyph glyph-name="eth" unicode="&#xf0;" horiz-adv-x="1178" 
d="M849 1305c170 -175 255 -393 256 -654v-74c0 -115 -22 -218 -67 -309c-44 -91 -106 -162 -185 -212c-79 -51 -168 -76 -266 -76c-96 0 -182 21 -259 64c-77 42 -136 100 -180 176c-42 74 -64 157 -64 248c0 154 41 276 123 364c82 90 192 134 329 134
c91 0 172 -25 244 -76c-33 101 -88 190 -166 265l-191 -122l-78 114l152 97c-77 48 -165 85 -264 111l91 224c159 -32 297 -92 416 -180l171 109l77 -114zM816 663c-45 55 -117 83 -215 83c-75 0 -132 -25 -171 -74c-38 -50 -57 -118 -57 -204c0 -75 20 -136 60 -184
c40 -47 93 -71 158 -71c69 0 123 30 164 91c41 60 61 143 61 248v111z" />
    <glyph glyph-name="ntilde" unicode="&#xf1;" horiz-adv-x="1147" 
d="M377 1082l9 -125c77 97 181 145 311 145c115 0 200 -34 256 -101s85 -168 86 -302v-699h-289v692c0 61 -13 106 -40 134c-27 27 -71 41 -133 41c-81 0 -142 -35 -183 -104v-763h-289v1082h272zM951 1523c0 -75 -22 -138 -66 -190c-44 -50 -98 -76 -161 -76
c-25 0 -48 3 -67 8c-20 6 -47 18 -82 37s-60 30 -75 35c-15 4 -32 6 -50 6c-23 0 -43 -8 -59 -25c-17 -17 -25 -40 -25 -71l-168 10c0 74 22 137 65 189c44 52 98 78 161 78c20 0 39 -3 57 -7c17 -6 46 -18 86 -37s68 -31 83 -35s31 -6 48 -6c23 0 43 8 61 24
c16 17 25 40 25 71z" />
    <glyph glyph-name="ograve" unicode="&#xf2;" horiz-adv-x="1158" 
d="M66 551c0 107 21 203 62 287s101 149 178 195c78 46 168 69 271 69c146 0 265 -45 357 -134c93 -89 144 -211 155 -364l2 -74c0 -166 -46 -299 -139 -400c-93 -100 -217 -150 -373 -150s-281 50 -373 150c-94 100 -140 236 -140 408v13zM355 530c0 -103 19 -181 58 -236
c39 -54 94 -81 166 -81c70 0 125 27 164 81c39 53 59 139 59 257c0 101 -20 179 -59 234s-95 83 -166 83s-125 -28 -164 -82c-39 -56 -58 -141 -58 -256zM720 1226h-237l-276 310h315z" />
    <glyph glyph-name="oacute" unicode="&#xf3;" horiz-adv-x="1158" 
d="M66 551c0 107 21 203 62 287s101 149 178 195c78 46 168 69 271 69c146 0 265 -45 357 -134c93 -89 144 -211 155 -364l2 -74c0 -166 -46 -299 -139 -400c-93 -100 -217 -150 -373 -150s-281 50 -373 150c-94 100 -140 236 -140 408v13zM355 530c0 -103 19 -181 58 -236
c39 -54 94 -81 166 -81c70 0 125 27 164 81c39 53 59 139 59 257c0 101 -20 179 -59 234s-95 83 -166 83s-125 -28 -164 -82c-39 -56 -58 -141 -58 -256zM634 1536h315l-277 -310h-235z" />
    <glyph glyph-name="ocircumflex" unicode="&#xf4;" horiz-adv-x="1158" 
d="M66 551c0 107 21 203 62 287s101 149 178 195c78 46 168 69 271 69c146 0 265 -45 357 -134c93 -89 144 -211 155 -364l2 -74c0 -166 -46 -299 -139 -400c-93 -100 -217 -150 -373 -150s-281 50 -373 150c-94 100 -140 236 -140 408v13zM355 530c0 -103 19 -181 58 -236
c39 -54 94 -81 166 -81c70 0 125 27 164 81c39 53 59 139 59 257c0 101 -20 179 -59 234s-95 83 -166 83s-125 -28 -164 -82c-39 -56 -58 -141 -58 -256zM960 1256v-12h-230l-154 145l-154 -145h-226v16l296 276h168z" />
    <glyph glyph-name="otilde" unicode="&#xf5;" horiz-adv-x="1158" 
d="M66 551c0 107 21 203 62 287s101 149 178 195c78 46 168 69 271 69c146 0 265 -45 357 -134c93 -89 144 -211 155 -364l2 -74c0 -166 -46 -299 -139 -400c-93 -100 -217 -150 -373 -150s-281 50 -373 150c-94 100 -140 236 -140 408v13zM355 530c0 -103 19 -181 58 -236
c39 -54 94 -81 166 -81c70 0 125 27 164 81c39 53 59 139 59 257c0 101 -20 179 -59 234s-95 83 -166 83s-125 -28 -164 -82c-39 -56 -58 -141 -58 -256zM952 1523c0 -75 -22 -138 -66 -190c-44 -50 -98 -76 -161 -76c-25 0 -48 3 -67 8c-20 6 -47 18 -82 37s-60 30 -75 35
c-15 4 -32 6 -50 6c-23 0 -43 -8 -59 -25c-17 -17 -25 -40 -25 -71l-168 10c0 74 22 137 65 189c44 52 98 78 161 78c20 0 39 -3 57 -7c17 -6 46 -18 86 -37s68 -31 83 -35s31 -6 48 -6c23 0 43 8 61 24c16 17 25 40 25 71z" />
    <glyph glyph-name="odieresis" unicode="&#xf6;" horiz-adv-x="1158" 
d="M66 551c0 107 21 203 62 287s101 149 178 195c78 46 168 69 271 69c146 0 265 -45 357 -134c93 -89 144 -211 155 -364l2 -74c0 -166 -46 -299 -139 -400c-93 -100 -217 -150 -373 -150s-281 50 -373 150c-94 100 -140 236 -140 408v13zM355 530c0 -103 19 -181 58 -236
c39 -54 94 -81 166 -81c70 0 125 27 164 81c39 53 59 139 59 257c0 101 -20 179 -59 234s-95 83 -166 83s-125 -28 -164 -82c-39 -56 -58 -141 -58 -256zM471 1365c0 -35 -13 -65 -39 -89c-26 -25 -59 -37 -100 -37s-75 12 -100 37s-38 54 -38 89s13 65 38 89
c25 26 59 38 100 38s75 -12 100 -38c26 -24 39 -54 39 -89zM681 1365c0 36 13 66 41 91c26 24 59 36 98 36s72 -12 98 -37c27 -25 40 -55 40 -90s-13 -65 -38 -89c-25 -26 -59 -38 -100 -38s-75 12 -100 38c-26 24 -39 54 -39 89z" />
    <glyph glyph-name="divide" unicode="&#xf7;" horiz-adv-x="1168" 
d="M1091 571h-1028v230h1028v-230zM415 1089c0 45 15 82 45 110c31 28 70 42 118 42c47 0 86 -14 118 -41c30 -28 46 -65 46 -111c0 -45 -15 -81 -45 -109c-30 -27 -70 -41 -119 -41c-50 0 -90 14 -119 42s-44 64 -44 108zM415 277c0 45 15 82 45 110c31 28 70 42 118 42
c47 0 86 -14 118 -41c30 -28 46 -65 46 -111c0 -45 -15 -81 -45 -109c-30 -27 -70 -41 -119 -41c-50 0 -90 14 -119 42s-44 64 -44 108z" />
    <glyph glyph-name="oslash" unicode="&#xf8;" horiz-adv-x="1156" 
d="M66 551c0 107 21 203 62 287s101 149 178 195c78 46 168 69 271 69c67 0 129 -10 186 -29l70 143h161l-103 -211c133 -99 200 -258 200 -475c0 -166 -46 -299 -139 -400c-93 -100 -217 -150 -373 -150c-63 0 -122 9 -176 26l-72 -148h-161l103 212
c-138 97 -207 258 -207 481zM355 530c0 -87 14 -156 41 -208l260 532c-24 9 -50 14 -79 14c-71 0 -125 -28 -164 -82c-39 -56 -58 -141 -58 -256zM802 551c0 76 -12 141 -37 196l-256 -524c20 -7 43 -10 70 -10c70 0 125 27 164 81c39 53 59 139 59 257z" />
    <glyph glyph-name="ugrave" unicode="&#xf9;" horiz-adv-x="1146" 
d="M759 110c-71 -87 -170 -130 -296 -130c-116 0 -205 33 -265 100c-62 67 -93 164 -94 293v709h289v-699c0 -113 51 -169 154 -169c98 0 165 34 202 102v766h290v-1082h-272zM716 1226h-237l-276 310h315z" />
    <glyph glyph-name="uacute" unicode="&#xfa;" horiz-adv-x="1146" 
d="M759 110c-71 -87 -170 -130 -296 -130c-116 0 -205 33 -265 100c-62 67 -93 164 -94 293v709h289v-699c0 -113 51 -169 154 -169c98 0 165 34 202 102v766h290v-1082h-272zM630 1536h315l-277 -310h-235z" />
    <glyph glyph-name="ucircumflex" unicode="&#xfb;" horiz-adv-x="1146" 
d="M759 110c-71 -87 -170 -130 -296 -130c-116 0 -205 33 -265 100c-62 67 -93 164 -94 293v709h289v-699c0 -113 51 -169 154 -169c98 0 165 34 202 102v766h290v-1082h-272zM956 1256v-12h-230l-154 145l-154 -145h-226v16l296 276h168z" />
    <glyph glyph-name="udieresis" unicode="&#xfc;" horiz-adv-x="1146" 
d="M759 110c-71 -87 -170 -130 -296 -130c-116 0 -205 33 -265 100c-62 67 -93 164 -94 293v709h289v-699c0 -113 51 -169 154 -169c98 0 165 34 202 102v766h290v-1082h-272zM467 1365c0 -35 -13 -65 -39 -89c-26 -25 -59 -37 -100 -37s-75 12 -100 37s-38 54 -38 89
s13 65 38 89c25 26 59 38 100 38s75 -12 100 -38c26 -24 39 -54 39 -89zM677 1365c0 36 13 66 41 91c26 24 59 36 98 36s72 -12 98 -37c27 -25 40 -55 40 -90s-13 -65 -38 -89c-25 -26 -59 -38 -100 -38s-75 12 -100 38c-26 24 -39 54 -39 89z" />
    <glyph glyph-name="yacute" unicode="&#xfd;" horiz-adv-x="1028" 
d="M515 409l200 673h310l-435 -1250l-24 -57c-65 -141 -171 -212 -320 -212c-42 0 -85 6 -128 19v219l44 -1c55 0 96 8 122 25c28 17 49 44 64 83l34 89l-379 1085h311zM578 1536h315l-277 -310h-235z" />
    <glyph glyph-name="thorn" unicode="&#xfe;" horiz-adv-x="1162" 
d="M1087 531c0 -167 -38 -300 -113 -401c-76 -100 -178 -150 -307 -150c-109 0 -197 38 -264 113v-509h-290v1952h290v-547c67 75 154 113 262 113c132 0 235 -49 310 -147s112 -235 112 -410v-14zM798 552c0 101 -18 178 -54 233c-35 55 -87 82 -155 82
c-88 0 -150 -34 -186 -102v-447c36 -70 99 -105 188 -105c138 0 207 113 207 339z" />
    <glyph glyph-name="ydieresis" unicode="&#xff;" horiz-adv-x="1028" 
d="M515 409l200 673h310l-435 -1250l-24 -57c-65 -141 -171 -212 -320 -212c-42 0 -85 6 -128 19v219l44 -1c55 0 96 8 122 25c28 17 49 44 64 83l34 89l-379 1085h311zM415 1365c0 -35 -13 -65 -39 -89c-26 -25 -59 -37 -100 -37s-75 12 -100 37s-38 54 -38 89s13 65 38 89
c25 26 59 38 100 38s75 -12 100 -38c26 -24 39 -54 39 -89zM625 1365c0 36 13 66 41 91c26 24 59 36 98 36s72 -12 98 -37c27 -25 40 -55 40 -90s-13 -65 -38 -89c-25 -26 -59 -38 -100 -38s-75 12 -100 38c-26 24 -39 54 -39 89z" />
    <glyph glyph-name="dcroat" unicode="&#x111;" horiz-adv-x="1291" 
d="M1199 1218h-158v-1218h-261l-14 115c-72 -90 -165 -135 -278 -135c-127 0 -230 50 -306 150c-78 101 -116 240 -116 419c0 169 38 303 114 403c75 100 179 150 310 150c105 0 192 -39 261 -118v234h-252v183h252v135h290v-135h158v-183zM355 528c0 -101 18 -179 53 -233
s87 -81 154 -81c89 0 152 38 189 113v427c-36 75 -98 113 -187 113c-139 0 -209 -113 -209 -339z" />
    <glyph glyph-name="Hbar" unicode="&#x126;" horiz-adv-x="1474" 
d="M1331 1224h122v-174h-122v-1050h-300v624h-585v-624h-301v1050h-113v174h113v232h301v-232h585v232h300v-232zM446 866h585v184h-585v-184z" />
    <glyph glyph-name="dotlessi" unicode="&#x131;" horiz-adv-x="561" 
d="M423 0h-289v1082h289v-1082z" />
    <glyph glyph-name="kgreenlandic" unicode="&#x138;" horiz-adv-x="1208" 
d="M537 399h-118v-399h-289v1082h289v-407h87l282 407h365l-380 -521l397 -561h-371z" />
    <glyph glyph-name="Lslash" unicode="&#x141;" horiz-adv-x="1142" 
d="M463 895l215 62v-166l-215 -62v-488h637v-241h-937v642l-134 -38v166l134 38v648h300v-561z" />
    <glyph glyph-name="lslash" unicode="&#x142;" horiz-adv-x="626" 
d="M451 910l142 47v-166l-142 -47v-744h-289v648l-132 -44v166l132 44v722h289v-626z" />
    <glyph glyph-name="Eng" unicode="&#x14a;" horiz-adv-x="1440" 
d="M1312 1456v-1482c0 -131 -34 -232 -102 -304c-68 -71 -163 -107 -285 -107c-54 0 -103 6 -147 17l14 238c31 -8 64 -12 99 -12c81 0 121 58 121 174v20l-583 980v-980h-301v1456h301l583 -979v979h300z" />
    <glyph glyph-name="eng" unicode="&#x14b;" horiz-adv-x="1156" 
d="M377 1082l13 -152c75 115 178 172 309 172c115 0 201 -37 259 -110c59 -73 88 -182 89 -326v-700c0 -129 -34 -229 -101 -298c-67 -70 -161 -105 -280 -105c-52 0 -100 6 -143 17l14 231c30 -8 63 -12 99 -12c81 0 121 58 121 173v688c0 72 -13 124 -39 158
c-26 32 -68 49 -125 49c-85 0 -151 -29 -196 -87v-780h-289v1082h269z" />
    <glyph glyph-name="OE" unicode="&#x152;" horiz-adv-x="1983" 
d="M1876 0h-886c-111 -13 -207 -20 -288 -20c-116 0 -220 24 -312 74c-92 48 -164 118 -214 206c-52 90 -78 190 -80 303v317c0 115 25 218 76 310c50 90 121 161 214 211c92 50 197 75 314 75c82 0 179 -7 290 -20h884v-243h-673v-347h575v-235h-575v-390h675v-241z
M702 212c63 0 129 4 198 13v1004c-75 9 -141 14 -200 14c-100 0 -177 -31 -232 -93c-55 -61 -82 -150 -83 -265v-309c0 -117 28 -207 83 -270c56 -63 134 -94 234 -94z" />
    <glyph glyph-name="oe" unicode="&#x153;" horiz-adv-x="1847" 
d="M83 551c0 107 20 203 61 287c41 83 100 148 177 194c77 47 167 70 270 70c154 0 278 -50 371 -149c89 101 206 150 349 149c143 0 255 -43 337 -129s123 -208 123 -365v-158h-654c11 -75 38 -134 81 -176c44 -41 100 -62 169 -62c57 0 107 6 152 16c45 12 94 32 149 62
l79 -187c-49 -39 -109 -69 -182 -91c-73 -21 -149 -32 -228 -32c-155 0 -280 50 -373 149c-92 -99 -216 -149 -371 -149s-279 50 -371 150c-93 99 -139 235 -139 408v13zM372 530c0 -103 19 -182 56 -236c38 -55 93 -82 165 -82c71 0 125 27 163 80c38 54 57 140 57 259
c0 102 -19 180 -58 235s-93 82 -164 82c-70 0 -124 -27 -162 -82s-57 -140 -57 -256zM1311 868c-51 0 -93 -19 -126 -57s-54 -93 -65 -164h367v26c0 65 -15 113 -47 146c-30 33 -74 49 -129 49z" />
    <glyph glyph-name="longs" unicode="&#x17f;" horiz-adv-x="531" 
d="M117 0v1174c0 122 35 216 103 283c70 67 168 100 295 100c43 0 96 -7 160 -21l-24 -223c-29 7 -62 10 -97 10c-99 0 -148 -51 -148 -153v-1170h-289z" />
    <glyph glyph-name="uni018F" unicode="&#x18f;" horiz-adv-x="1423" 
d="M701 -20c-198 0 -352 60 -461 179c-110 119 -165 290 -165 512v155h950c-5 125 -41 221 -110 288c-69 66 -167 99 -295 99c-136 0 -265 -21 -387 -63l-49 247c43 20 109 38 199 55c90 16 174 24 252 24c215 0 383 -61 507 -182c122 -121 184 -290 184 -505v-138
c0 -127 -27 -242 -81 -345c-54 -102 -129 -182 -225 -240c-96 -57 -202 -86 -319 -86zM701 241c89 0 161 30 218 90s91 144 103 251h-647v-31c0 -101 28 -178 84 -231s137 -79 242 -79z" />
    <glyph glyph-name="florin" unicode="&#x192;" horiz-adv-x="739" 
d="M681 870h-207l-1 -917c0 -125 -32 -222 -97 -289c-64 -67 -153 -101 -268 -101c-52 0 -100 6 -143 17l15 229c19 -8 49 -12 91 -12s71 13 88 39c17 27 25 65 25 115v919h-161v212h161v100c1 119 37 212 106 277c70 65 168 98 293 98c42 0 95 -7 159 -21l-24 -224
c-28 7 -61 10 -99 10c-97 0 -145 -50 -145 -150v-90h207v-212z" />
    <glyph glyph-name="Ohorn" unicode="&#x1a0;" horiz-adv-x="1436" 
d="M1320 695c0 -143 -25 -269 -76 -377s-123 -191 -218 -250c-94 -59 -202 -88 -324 -88c-121 0 -228 29 -323 87s-168 141 -220 249c-52 107 -78 231 -79 371v72c0 143 26 269 78 379c51 108 124 192 218 250c95 59 203 88 324 88c91 0 174 -16 250 -48
c74 -33 139 -79 194 -140c49 12 82 42 100 90s27 111 27 188h196c0 -229 -76 -370 -228 -421c53 -110 80 -235 81 -376v-74zM1016 761c0 153 -27 269 -82 348s-133 119 -234 119s-178 -39 -233 -118c-55 -78 -82 -193 -83 -344v-71c0 -149 27 -264 82 -346
s133 -123 236 -123c101 0 178 40 232 118c54 80 81 195 82 346v71z" />
    <glyph glyph-name="ohorn" unicode="&#x1a1;" horiz-adv-x="1190" 
d="M64 551c0 108 21 204 62 288c42 84 102 149 180 195c78 45 168 68 270 68c158 0 284 -52 377 -155c31 19 51 49 62 89c11 41 16 90 16 147h176c0 -181 -59 -299 -177 -352c39 -82 59 -175 59 -280v-21c0 -108 -21 -204 -63 -288c-41 -84 -100 -149 -178 -194
c-76 -45 -167 -68 -270 -68c-149 0 -270 46 -363 139s-143 218 -150 375zM354 530c0 -103 19 -181 58 -236c39 -54 94 -81 166 -81c71 0 125 27 164 81s58 140 58 257c0 100 -19 178 -58 233c-39 56 -94 84 -166 84c-71 0 -125 -28 -164 -82c-39 -56 -58 -141 -58 -256z" />
    <glyph glyph-name="Uhorn" unicode="&#x1af;" horiz-adv-x="1459" 
d="M1232 1456v-228c50 4 89 16 116 36c28 21 48 50 60 86c13 38 19 100 19 187h193c0 -160 -31 -276 -94 -349c-62 -73 -160 -112 -294 -118v-573c0 -159 -50 -285 -150 -378c-99 -93 -235 -139 -408 -139c-170 0 -305 45 -405 135s-151 214 -153 371v970h300v-961
c0 -95 23 -165 68 -209c46 -43 109 -65 190 -65c169 0 254 89 257 266v969h301z" />
    <glyph glyph-name="uhorn" unicode="&#x1b0;" horiz-adv-x="1249" 
d="M1335 1177c0 -121 -24 -211 -71 -269c-48 -59 -123 -93 -225 -104v-804h-272l-8 110c-71 -87 -170 -130 -296 -130c-116 0 -205 33 -265 100c-62 67 -93 164 -94 293v709h289v-699c0 -113 51 -169 154 -169c98 0 165 34 202 102v766h290v-139c45 10 77 31 95 62
c19 31 28 89 28 172h173z" />
    <glyph glyph-name="uni0237" unicode="&#x237;" horiz-adv-x="577" 
d="M439 1082v-1118c-1 -128 -34 -227 -101 -296c-66 -70 -159 -105 -279 -105c-51 0 -99 6 -142 17l14 229c29 -8 62 -12 98 -12c81 0 121 59 121 176v1109h289z" />
    <glyph glyph-name="uni0259" unicode="&#x259;" horiz-adv-x="1084" 
d="M512 1103c151 0 275 -49 370 -147c95 -99 143 -230 143 -393v-29c0 -106 -20 -202 -61 -286c-40 -86 -97 -151 -172 -198c-74 -47 -159 -70 -254 -69c-144 0 -257 43 -338 129c-81 87 -122 208 -122 364v158h654c-11 75 -38 133 -82 175c-43 42 -99 63 -168 63
c-93 0 -174 -16 -241 -48l-60 -30l-79 187c49 39 109 69 181 91s148 33 229 33zM538 214c51 0 93 19 126 57s54 93 65 164h-367v-26c0 -64 15 -113 46 -145c31 -34 74 -50 130 -50z" />
    <glyph glyph-name="circumflex" unicode="&#x2c6;" horiz-adv-x="1015" 
d="M887 1256v-12h-230l-154 145l-154 -145h-226v16l296 276h168z" />
    <glyph glyph-name="caron" unicode="&#x2c7;" horiz-adv-x="964" 
d="M479 1394l146 143h247v-11l-302 -281h-183l-302 283v9h247z" />
    <glyph glyph-name="uni02C9" unicode="&#x2c9;" horiz-adv-x="1026" 
d="M858 1287h-690v167h690v-167z" />
    <glyph glyph-name="breve" unicode="&#x2d8;" horiz-adv-x="909" 
d="M798 1526c0 -89 -32 -160 -96 -215c-63 -55 -147 -82 -250 -82s-187 27 -250 81c-64 54 -96 126 -96 216h205c0 -42 13 -74 37 -98c26 -22 60 -34 104 -34c43 0 77 12 102 34c25 24 37 56 37 98h207z" />
    <glyph glyph-name="dotaccent" unicode="&#x2d9;" horiz-adv-x="543" 
d="M266 1511c46 0 82 -13 108 -39c27 -25 40 -58 40 -98s-13 -73 -40 -98c-26 -25 -62 -38 -108 -38c-45 0 -81 13 -108 38s-40 58 -40 98s14 73 40 98c28 26 63 39 108 39z" />
    <glyph glyph-name="ring" unicode="&#x2da;" horiz-adv-x="682" 
d="M119 1325c0 57 22 106 65 145c43 40 96 60 158 60c61 0 114 -20 158 -58c43 -40 65 -88 65 -147c0 -57 -21 -104 -64 -143s-96 -58 -159 -58c-65 0 -118 20 -160 59s-63 87 -63 142zM234 1325c0 -29 10 -55 29 -75c19 -22 46 -32 79 -32s60 10 79 32c19 20 29 46 29 75
c0 31 -10 57 -30 77c-19 22 -45 32 -78 32s-59 -10 -78 -32c-20 -20 -30 -46 -30 -77z" />
    <glyph glyph-name="ogonek" unicode="&#x2db;" horiz-adv-x="616" 
d="M404 0c-49 -28 -87 -56 -114 -82c-27 -28 -40 -59 -40 -94c0 -43 22 -65 66 -65c22 0 49 7 80 20l29 -157c-49 -29 -104 -44 -165 -44c-67 0 -121 18 -164 56c-42 36 -63 88 -63 153c0 115 74 206 223 273z" />
    <glyph glyph-name="tilde" unicode="&#x2dc;" horiz-adv-x="985" 
d="M870 1524c0 -75 -22 -138 -66 -190c-44 -50 -98 -76 -161 -76c-25 0 -48 3 -67 8c-20 6 -47 18 -82 37s-60 30 -75 35c-15 4 -32 6 -50 6c-23 0 -43 -8 -59 -25c-17 -17 -25 -40 -25 -71l-168 10c0 74 22 137 65 189c44 52 98 78 161 78c20 0 39 -3 57 -7
c17 -6 46 -18 86 -37s68 -31 83 -35s31 -6 48 -6c23 0 43 8 61 24c16 17 25 40 25 71z" />
    <glyph glyph-name="hungarumlaut" unicode="&#x2dd;" horiz-adv-x="840" 
d="M634 1535h259l-266 -301h-218zM243 1535h255l-229 -301h-212z" />
    <glyph glyph-name="uni02F3" unicode="&#x2f3;" horiz-adv-x="643" 
d="M330 -57c54 0 98 -17 133 -51s52 -75 52 -122s-17 -87 -52 -120s-79 -49 -133 -49c-53 0 -98 16 -134 48s-54 72 -54 121s18 90 54 123s81 50 134 50zM255 -230c0 -21 7 -39 21 -53c15 -14 33 -21 54 -21s39 7 52 21s20 32 20 53c0 23 -7 41 -20 56c-13 14 -31 21 -52 21
s-39 -7 -54 -21c-14 -15 -21 -33 -21 -56z" />
    <glyph glyph-name="gravecomb" unicode="&#x300;" horiz-adv-x="0" 
d="M-383 1226h-237l-276 310h316z" />
    <glyph glyph-name="acutecomb" unicode="&#x301;" horiz-adv-x="0" 
d="M-486 1536h316l-278 -310h-234z" />
    <glyph glyph-name="tildecomb" unicode="&#x303;" horiz-adv-x="0" 
d="M-174 1524c0 -75 -22 -138 -66 -190c-44 -50 -98 -76 -161 -76c-25 0 -48 3 -67 8c-20 6 -47 18 -82 37s-60 30 -75 35c-15 4 -32 6 -50 6c-23 0 -43 -8 -59 -25c-17 -17 -25 -40 -25 -71l-168 10c0 74 22 137 65 189c44 52 98 78 161 78c20 0 39 -3 57 -7
c17 -6 46 -18 86 -37s68 -31 83 -35s31 -6 48 -6c23 0 43 8 61 24c16 17 25 40 25 71z" />
    <glyph glyph-name="hookabovecomb" unicode="&#x309;" horiz-adv-x="0" 
d="M-718 1267l-15 134c49 3 84 9 105 19c22 9 33 25 33 46c0 46 -47 69 -142 69l7 135c125 0 220 -17 284 -52c63 -35 95 -82 95 -143c0 -39 -14 -71 -41 -97c-27 -24 -64 -40 -109 -47v-64h-217z" />
    <glyph glyph-name="uni030F" unicode="&#x30f;" horiz-adv-x="0" 
d="M-509 1252h-239l-292 266h286zM-170 1252h-233l-245 266h280z" />
    <glyph glyph-name="dotbelowcomb" unicode="&#x323;" horiz-adv-x="0" 
d="M-761 -234c0 40 15 73 45 99s69 39 116 39c48 0 87 -13 117 -39s45 -59 45 -99c0 -39 -15 -72 -44 -99c-30 -27 -69 -40 -118 -40s-88 13 -117 40s-44 60 -44 99z" />
    <glyph glyph-name="tonos" unicode="&#x384;" horiz-adv-x="690" 
d="M291 1601h262l-163 -345h-172z" />
    <glyph glyph-name="dieresistonos" unicode="&#x385;" horiz-adv-x="1123" 
d="M507 1751h259l-154 -332h-148zM102 1365c0 35 13 65 38 89c26 26 60 38 101 38s75 -12 100 -38c25 -24 38 -54 38 -89s-13 -64 -38 -89s-59 -37 -100 -37s-74 12 -100 37c-26 24 -39 54 -39 89zM719 1365c0 35 13 65 39 90c27 25 60 37 99 37s71 -12 99 -36
c26 -25 40 -55 40 -91c0 -35 -13 -65 -38 -89c-26 -26 -60 -38 -101 -38s-75 12 -100 38c-25 24 -38 54 -38 89z" />
    <glyph glyph-name="anoteleia" unicode="&#x387;" horiz-adv-x="617" 
d="M140 697c0 46 15 83 46 112s70 43 117 43s87 -14 117 -43c32 -29 47 -66 47 -112s-16 -83 -47 -111c-31 -29 -70 -43 -117 -43c-48 0 -87 15 -117 43c-31 30 -46 66 -46 111z" />
    <glyph glyph-name="Gamma" unicode="&#x393;" horiz-adv-x="1141" 
d="M1085 1213h-653v-1213h-300v1456h953v-243z" />
    <glyph glyph-name="uni0394" unicode="&#x394;" horiz-adv-x="1497" 
d="M601 1456h311l573 -1456h-1465zM427 241h653l-325 868z" />
    <glyph glyph-name="Theta" unicode="&#x398;" horiz-adv-x="1409" 
d="M901 607h-383v232h383v-232zM1322 695c0 -143 -25 -269 -76 -377s-123 -191 -218 -250c-94 -59 -202 -88 -324 -88c-121 0 -228 29 -323 87s-168 141 -220 249c-52 107 -78 231 -79 371v72c0 143 26 269 78 379c51 108 124 192 218 250c95 59 203 88 324 88
s229 -29 324 -88c94 -58 167 -142 218 -250c52 -110 78 -235 78 -378v-65zM1018 761c0 153 -27 269 -82 348s-133 119 -234 119s-178 -39 -233 -118c-55 -78 -82 -193 -83 -344v-71c0 -149 27 -264 82 -346s133 -123 236 -123c101 0 178 40 232 118c54 80 81 195 82 346v71z
" />
    <glyph glyph-name="Lambda" unicode="&#x39b;" horiz-adv-x="1326" 
d="M661 1043l-320 -1043h-325l489 1456h312l490 -1456h-325z" />
    <glyph glyph-name="Xi" unicode="&#x39e;" horiz-adv-x="1161" 
d="M95 241h985v-241h-985v241zM210 852h755v-233h-755v233zM119 1456h918v-243h-918v243z" />
    <glyph glyph-name="Pi" unicode="&#x3a0;" horiz-adv-x="1449" 
d="M1316 0h-301v1213h-583v-1213h-300v1456h1184v-1456z" />
    <glyph glyph-name="Sigma" unicode="&#x3a3;" horiz-adv-x="1161" 
d="M829 727l-350 -486h626v-241h-1033v151l439 584l-439 570v151h1009v-243h-597l345 -471v-15z" />
    <glyph glyph-name="Phi" unicode="&#x3a6;" horiz-adv-x="1576" 
d="M945 1287c114 -5 214 -31 300 -79s152 -114 199 -200c47 -84 70 -181 70 -289c0 -106 -23 -200 -70 -283s-114 -148 -200 -194c-88 -48 -187 -73 -299 -78v-164h-300v164c-113 3 -214 28 -301 76c-87 46 -154 111 -201 194s-70 177 -70 283c0 109 24 207 71 292
s114 152 202 201c86 48 186 74 299 77v169h300v-169zM368 717c0 -92 25 -163 74 -211c49 -50 117 -76 203 -81v601c-87 -5 -155 -34 -204 -87s-73 -127 -73 -222zM1219 719c0 93 -24 166 -71 219c-48 53 -116 83 -203 88v-600c87 5 154 33 202 82s72 120 72 211z" />
    <glyph glyph-name="Psi" unicode="&#x3a8;" horiz-adv-x="1488" 
d="M897 634c79 15 137 51 175 110c39 59 58 142 58 249v463h302v-472c-2 -178 -55 -320 -158 -426c-93 -95 -219 -151 -377 -168v-390h-300v389c-167 13 -300 73 -397 178c-98 105 -147 246 -148 423v466h300v-463c0 -105 22 -187 64 -245c44 -60 104 -97 181 -112v820h300
v-822z" />
    <glyph glyph-name="uni03A9" unicode="&#x3a9;" horiz-adv-x="1376" 
d="M735 248c116 50 178 206 186 468l1 146c0 122 -21 214 -64 276c-43 61 -102 92 -179 92c-75 0 -135 -31 -177 -92c-44 -62 -65 -154 -65 -276v-87c0 -150 16 -269 49 -357c33 -89 81 -145 145 -170v-248h-512v244h217c-73 65 -130 144 -171 238c-41 92 -62 189 -63 289
v89c0 118 24 224 73 318s117 167 205 219s188 78 299 78c110 0 209 -25 297 -77c87 -50 156 -122 204 -214c50 -91 75 -194 77 -309v-100c0 -103 -21 -201 -63 -295c-42 -92 -99 -171 -171 -236h216v-244h-504v248z" />
    <glyph glyph-name="alpha" unicode="&#x3b1;" horiz-adv-x="1154" 
d="M1031 1082v-747c2 -79 26 -118 71 -118c9 0 17 1 22 4l24 -217c-33 -17 -75 -25 -125 -25c-121 0 -204 56 -249 167c-65 -111 -158 -166 -279 -166c-123 0 -223 44 -298 132c-75 87 -116 207 -123 360l-1 61c0 175 38 314 114 416s179 153 310 153
c110 0 197 -50 262 -150l21 130h251zM363 512c0 -200 68 -300 205 -300c79 0 137 32 174 96v455c-37 70 -94 105 -172 105c-66 0 -117 -29 -153 -86s-54 -147 -54 -270z" />
    <glyph glyph-name="beta" unicode="&#x3b2;" horiz-adv-x="1232" 
d="M626 1476c144 0 258 -35 342 -104c85 -69 127 -166 127 -290c0 -67 -17 -127 -50 -181s-80 -97 -141 -130c82 -28 145 -73 188 -134c44 -61 66 -136 66 -223c0 -137 -40 -243 -119 -320c-79 -76 -188 -114 -327 -114c-105 0 -199 25 -281 76v-462h-289v1440
c0 83 21 159 63 226c42 68 100 121 175 159s157 57 246 57zM806 1060c0 55 -16 99 -50 132c-32 33 -76 50 -130 50c-57 0 -103 -19 -140 -56c-37 -38 -55 -90 -55 -156v-759c55 -39 127 -58 216 -58c68 0 122 19 162 57c40 39 60 88 60 148c0 72 -18 128 -55 168
c-36 41 -89 61 -160 61h-97v211h78c114 4 171 71 171 202z" />
    <glyph glyph-name="gamma" unicode="&#x3b3;" horiz-adv-x="1045" 
d="M527 341l201 741h302l-363 -1068v-431h-289v440l-361 1059h302z" />
    <glyph glyph-name="delta" unicode="&#x3b4;" horiz-adv-x="1156" 
d="M192 1249c0 102 37 181 110 238c74 57 174 85 301 85c67 0 132 -8 193 -25l68 -20v-222c-99 31 -178 47 -236 47c-50 0 -89 -8 -118 -26c-29 -16 -43 -40 -43 -70c0 -53 53 -99 159 -136s194 -84 264 -140c71 -56 123 -120 156 -191s50 -160 50 -265
c0 -162 -47 -293 -140 -394c-94 -100 -218 -150 -372 -150c-155 0 -280 48 -374 146c-95 96 -142 228 -142 393v11c0 105 30 200 90 284c59 84 134 138 225 161l-3 6c-125 65 -188 154 -188 268zM357 537c0 -102 20 -182 61 -239s96 -86 166 -86c69 0 123 29 163 86
s60 144 60 259c0 74 -21 142 -63 203s-95 99 -160 113c-69 0 -124 -29 -166 -85c-40 -58 -61 -141 -61 -251z" />
    <glyph glyph-name="epsilon" unicode="&#x3b5;" horiz-adv-x="1139" 
d="M95 306c0 123 68 206 204 251c-58 24 -103 56 -136 97c-33 40 -49 84 -49 132c0 98 43 175 130 231c86 56 204 84 353 84c134 0 244 -31 329 -93s128 -141 128 -238h-289c0 34 -17 61 -51 82c-33 21 -77 31 -132 31c-54 0 -97 -11 -130 -33s-49 -51 -49 -87
c0 -35 15 -62 45 -83s75 -31 135 -31h187v-193h-191c-131 -1 -196 -44 -196 -129c0 -37 18 -67 55 -93c36 -24 84 -37 143 -37c61 0 110 12 147 35c36 23 54 53 54 88h289c0 -103 -44 -185 -133 -247s-202 -93 -341 -93c-149 0 -269 30 -363 90c-92 59 -139 138 -139 236z
" />
    <glyph glyph-name="zeta" unicode="&#x3b6;" horiz-adv-x="1026" 
d="M968 1456v-165l-359 -429c-78 -89 -131 -164 -160 -228c-29 -62 -43 -132 -43 -208c0 -55 12 -96 36 -126c24 -28 72 -53 145 -74s127 -37 162 -50c69 -24 117 -54 145 -90c29 -35 43 -81 43 -136c0 -50 -22 -108 -67 -172c-45 -66 -100 -121 -165 -167l-147 112
c64 67 95 123 92 168c3 42 -27 72 -89 91l-90 23c-123 31 -213 77 -269 137c-55 60 -83 140 -83 240c0 102 21 199 63 290c41 92 111 196 209 312l203 240h-518v232h892z" />
    <glyph glyph-name="eta" unicode="&#x3b7;" horiz-adv-x="1156" 
d="M377 1082l11 -133c79 102 183 153 311 153c227 0 343 -130 348 -389v-1128h-290v1115c-2 112 -57 168 -164 168c-85 0 -150 -31 -196 -93v-775h-289v1082h269z" />
    <glyph glyph-name="theta" unicode="&#x3b8;" horiz-adv-x="1208" 
d="M1095 608c0 -201 -42 -356 -127 -464c-85 -110 -206 -164 -363 -164c-155 0 -276 53 -361 159s-129 257 -132 452v259c0 201 42 356 128 464c84 108 206 162 363 162c154 0 274 -52 359 -156c86 -105 130 -255 133 -452v-260zM806 620h-405v-51c0 -237 68 -356 204 -356
c125 0 191 101 200 304zM401 843h405v48c0 119 -17 207 -50 265c-34 57 -85 86 -153 86c-125 0 -192 -100 -201 -301z" />
    <glyph glyph-name="iota" unicode="&#x3b9;" horiz-adv-x="690" 
d="M428 1082l-1 -744c0 -40 8 -69 23 -86c16 -17 46 -26 89 -26c29 0 57 3 84 8v-219c-52 -17 -110 -26 -175 -26c-203 0 -307 103 -310 309v784h290z" />
    <glyph glyph-name="lambda" unicode="&#x3bb;" horiz-adv-x="1123" 
d="M286 1546c132 0 221 -54 267 -163l422 -1059l16 -35c23 -48 51 -72 86 -73h20l16 1l2 -228c-27 -5 -64 -7 -110 -7c-74 0 -135 16 -181 50c-48 32 -85 87 -113 162l-171 469l-221 -663h-312l383 1057l-72 165c-13 33 -30 57 -51 70s-47 20 -78 20l-58 -3l-6 215
c47 15 100 22 161 22z" />
    <glyph glyph-name="xi" unicode="&#x3be;" horiz-adv-x="1085" 
d="M922 1200c-61 16 -105 26 -133 30c-28 5 -59 7 -92 7c-77 0 -133 -13 -167 -39c-36 -25 -53 -59 -53 -101c0 -99 79 -148 236 -148h143v-241h-139c-217 0 -325 -83 -325 -250c0 -117 81 -194 242 -232l148 -36l76 -25c111 -43 166 -116 164 -219c0 -52 -23 -110 -68 -176
c-46 -64 -100 -119 -163 -163l-150 112c63 66 95 122 95 169c0 44 -39 77 -117 98l-59 16c-72 22 -136 44 -193 64c-57 22 -105 48 -143 80c-40 31 -69 71 -90 118c-21 48 -31 109 -31 184c0 95 26 174 77 237c52 63 126 111 223 142c-143 52 -215 140 -215 265
c0 119 43 213 130 282c86 68 202 102 347 102c61 0 113 -4 156 -10c43 -8 91 -21 146 -40z" />
    <glyph glyph-name="pi" unicode="&#x3c0;" horiz-adv-x="1318" 
d="M1254 861h-171v-523c0 -39 7 -68 23 -86c14 -17 44 -26 88 -26c29 0 57 3 84 8v-219c-52 -17 -110 -26 -174 -26c-203 0 -306 102 -310 307v565h-276v-861h-289v861h-177v221h1202v-221z" />
    <glyph glyph-name="rho" unicode="&#x3c1;" horiz-adv-x="1156" 
d="M606 1102c149 0 267 -51 352 -153s128 -243 128 -424v-13c0 -165 -38 -295 -114 -390c-75 -95 -177 -142 -305 -142c-109 0 -197 40 -265 121v-517h-289v984c0 163 45 292 135 389s209 145 358 145zM402 304c37 -61 100 -92 189 -92c67 0 118 25 153 76
c35 50 53 132 53 245c0 108 -18 191 -53 249c-36 57 -87 86 -152 86c-59 0 -106 -28 -140 -82c-33 -56 -50 -136 -50 -241v-241z" />
    <glyph glyph-name="sigma1" unicode="&#x3c2;" horiz-adv-x="1054" 
d="M563 1102c135 0 243 -38 323 -115s120 -179 120 -308h-272c0 57 -15 103 -46 137c-30 35 -72 52 -125 52c-67 0 -118 -26 -155 -78c-36 -52 -54 -130 -55 -233v-31c0 -83 19 -146 57 -192c38 -44 103 -80 194 -106c92 -25 156 -48 193 -68c37 -21 65 -46 83 -77
c20 -31 30 -70 31 -117c0 -53 -23 -112 -69 -178c-45 -66 -98 -120 -158 -162l-151 114c63 65 93 121 92 168c0 48 -35 80 -106 96c-158 41 -273 103 -345 184s-109 190 -111 325v41c0 107 20 203 61 286c40 84 98 149 174 194c75 45 164 68 265 68z" />
    <glyph glyph-name="sigma" unicode="&#x3c3;" horiz-adv-x="1172" 
d="M1150 848h-254c117 -95 175 -214 175 -359c0 -152 -45 -275 -135 -369c-90 -93 -210 -140 -359 -140c-155 0 -279 50 -371 149c-94 99 -140 236 -140 409v13c0 159 46 288 138 385c91 97 216 146 375 146h571v-234zM355 530c0 -104 19 -183 57 -237
c39 -54 94 -81 165 -81c65 0 116 27 151 81c36 54 54 140 54 258c0 95 -18 168 -54 219c-36 52 -87 78 -153 78c-69 0 -123 -25 -162 -76s-58 -131 -58 -242z" />
    <glyph glyph-name="tau" unicode="&#x3c4;" horiz-adv-x="1066" 
d="M1021 850h-356v-522c0 -39 7 -68 21 -86s37 -27 70 -27c31 0 64 6 98 17l30 -220c-57 -21 -119 -32 -187 -32c-100 0 -178 28 -235 84c-57 57 -85 144 -86 263v523h-332v232h977v-232z" />
    <glyph glyph-name="upsilon" unicode="&#x3c5;" horiz-adv-x="1118" 
d="M403 1082v-662c0 -139 42 -208 126 -208c64 0 117 34 159 102c43 69 64 153 64 252c-3 157 -37 329 -102 516h276c76 -152 114 -324 114 -516c0 -183 -43 -326 -130 -430c-87 -105 -210 -157 -371 -157c-139 0 -244 37 -316 111c-72 75 -109 181 -110 319v673h290z" />
    <glyph glyph-name="phi" unicode="&#x3c6;" horiz-adv-x="1527" 
d="M610 -12c-179 22 -316 86 -412 190c-96 106 -144 244 -144 417c0 103 20 198 60 285c40 88 95 160 165 216l198 -154c-42 -46 -75 -99 -97 -160c-24 -61 -36 -123 -37 -187c0 -205 89 -328 267 -368v572c0 86 29 157 88 213c58 57 130 85 217 85c103 0 196 -22 277 -65
c81 -44 146 -108 195 -194c49 -84 73 -178 73 -279c0 -163 -49 -295 -146 -395c-98 -99 -236 -159 -415 -178v-464h-289v466zM899 224c87 17 154 53 201 109s71 131 71 226c-1 93 -22 167 -61 222s-93 83 -160 83c-34 0 -51 -17 -51 -52v-588z" />
    <glyph glyph-name="psi" unicode="&#x3c8;" horiz-adv-x="1524" 
d="M896 1082v-856c181 38 272 161 272 369c-2 142 -38 304 -108 487h268c86 -145 129 -308 129 -487c0 -177 -49 -318 -145 -423c-98 -104 -236 -166 -416 -185v-465h-289v466c-174 21 -307 82 -399 180c-91 100 -138 236 -140 409v505h290v-494c0 -201 83 -321 249 -360
v854h289z" />
    <glyph glyph-name="omega" unicode="&#x3c9;" horiz-adv-x="1681" 
d="M508 1082c-85 -180 -130 -352 -135 -516c0 -115 14 -203 41 -264c28 -60 67 -90 116 -90c107 0 160 96 160 289v343h305v-343c0 -193 53 -289 160 -289c51 0 89 31 117 94c26 62 40 149 40 260c-5 165 -50 337 -136 516h276c99 -152 149 -324 149 -516
c0 -195 -37 -341 -111 -439s-182 -147 -325 -147c-73 0 -137 18 -193 54c-54 36 -98 89 -130 158c-33 -69 -76 -122 -131 -158s-118 -54 -191 -54c-143 0 -252 49 -326 148c-74 98 -111 244 -111 438c0 192 50 364 149 516h276z" />
    <glyph glyph-name="theta1" unicode="&#x3d1;" horiz-adv-x="1219" 
d="M1209 577c-32 -11 -70 -20 -113 -28v-84c0 -149 -45 -267 -136 -355c-91 -86 -210 -130 -357 -130c-144 0 -261 45 -351 134c-90 90 -135 207 -135 352v237l275 1v-242c0 -73 20 -131 61 -174c41 -44 95 -66 164 -66c55 0 98 21 129 62c31 42 46 100 46 174v89
c-135 29 -244 88 -326 177c-81 90 -123 196 -126 318v34c0 123 36 220 107 292s164 108 279 108s205 -37 270 -110c65 -74 99 -175 100 -303v-262l102 20zM615 1066c0 -58 15 -109 45 -154s74 -78 132 -99v282c-1 83 -28 124 -81 124c-64 0 -96 -45 -96 -135v-18z" />
    <glyph glyph-name="Upsilon1" unicode="&#x3d2;" horiz-adv-x="1210" 
d="M606 767l182 471c33 87 74 149 123 187s110 57 181 57c49 0 97 -8 146 -25l-38 -231l-57 5c-45 0 -78 -24 -99 -71l-289 -672v-488h-302v488l-286 672c-20 47 -53 71 -100 71l-57 -5l-35 231c50 17 98 25 144 25c75 0 137 -18 184 -54c47 -35 86 -92 117 -169z" />
    <glyph glyph-name="omega1" unicode="&#x3d6;" horiz-adv-x="1694" 
d="M1685 876h-126c33 -99 50 -202 50 -310c0 -195 -36 -342 -107 -440c-72 -97 -177 -146 -316 -146c-77 0 -144 18 -202 55c-57 37 -103 91 -136 162c-34 -71 -80 -125 -137 -162s-124 -55 -201 -55c-139 0 -245 49 -316 148c-72 99 -108 245 -108 438c0 108 17 211 50 310
h-116v206h1665v-206zM1321 566c-3 97 -21 201 -55 310h-837c-33 -107 -51 -211 -54 -310c0 -115 13 -202 38 -263s61 -91 108 -91c117 0 175 96 175 289v192h304v-192c0 -193 58 -289 175 -289c47 0 83 30 108 91s38 148 38 263z" />
    <glyph glyph-name="uni0402" unicode="&#x402;" horiz-adv-x="1531" 
d="M1165 1213h-473v-349c89 21 170 31 243 31c173 0 306 -39 399 -119c94 -78 141 -190 141 -333c0 -65 -12 -127 -35 -186c-24 -59 -61 -109 -112 -151c-98 -82 -234 -123 -409 -123v227c171 0 256 72 256 215c0 68 -22 123 -66 164s-107 62 -189 62
c-78 0 -154 -8 -228 -23v-628h-301v1213h-362v243h1136v-243z" />
    <glyph glyph-name="uni0404" unicode="&#x404;" horiz-adv-x="1351" 
d="M1275 484c-11 -154 -69 -276 -173 -368c-103 -90 -241 -136 -413 -136c-185 0 -331 62 -438 185s-162 291 -164 504v104c0 142 25 266 74 373c49 106 120 188 211 244c92 58 199 86 320 86c169 0 304 -45 406 -136c103 -90 162 -216 178 -379h-300c-7 94 -34 163 -78 207
c-46 43 -114 65 -206 65c-93 0 -165 -31 -216 -94c-50 -63 -79 -159 -87 -289h447v-242h-447c7 -127 33 -224 81 -290c46 -65 120 -98 219 -98c90 0 158 22 205 64c47 44 73 110 80 200h301z" />
    <glyph glyph-name="uni0409" unicode="&#x409;" horiz-adv-x="2166" 
d="M1314 961h241c108 0 204 -20 288 -61c84 -40 149 -97 195 -170c45 -73 68 -156 68 -249c0 -143 -50 -259 -152 -347c-100 -90 -237 -134 -408 -134h-533v1213h-388l-24 -514c-10 -173 -32 -310 -66 -409c-34 -100 -84 -173 -149 -220c-65 -46 -155 -69 -268 -70h-78v241
l50 5c75 10 129 54 162 130c32 78 52 215 61 412l25 668h976v-495zM1314 719v-478h239c77 0 138 23 183 67c46 46 69 104 69 175c0 67 -22 123 -65 167c-44 44 -103 67 -177 69h-249z" />
    <glyph glyph-name="uni040A" unicode="&#x40a;" horiz-adv-x="2168" 
d="M432 842h583v614h300v-504h242c108 0 204 -20 287 -60c83 -39 148 -95 194 -168c45 -72 68 -154 68 -247c0 -141 -50 -256 -148 -343c-100 -87 -230 -132 -393 -134h-550v601h-583v-601h-300v1456h300v-614zM1315 710v-467h240c76 0 137 22 183 65c46 44 69 101 69 171
c0 68 -23 123 -69 167c-45 42 -107 64 -184 64h-239z" />
    <glyph glyph-name="uni040B" unicode="&#x40b;" horiz-adv-x="1580" 
d="M1145 1213h-467v-299c85 12 158 18 217 18c185 0 325 -40 421 -121c95 -81 144 -197 147 -349v-462h-300v451c0 86 -20 147 -61 184s-110 55 -207 55c-59 0 -132 -6 -217 -18v-672h-300v1213h-345v243h1112v-243z" />
    <glyph glyph-name="uni040F" unicode="&#x40f;" horiz-adv-x="1434" 
d="M117 1456h300v-1215h583v1215h301v-1456h-428v-360h-302v360h-454v1456z" />
    <glyph glyph-name="uni0411" unicode="&#x411;" horiz-adv-x="1283" 
d="M1080 1213h-650v-282h234c171 0 307 -41 408 -125c100 -82 150 -194 150 -335s-50 -255 -150 -341c-99 -85 -232 -129 -397 -130h-548v1456h953v-243zM430 689v-448h239c77 0 138 21 183 63c46 42 69 98 69 169c0 66 -22 118 -65 157c-44 38 -104 58 -180 59h-246z" />
    <glyph glyph-name="uni0414" unicode="&#x414;" horiz-adv-x="1531" 
d="M1480 -358h-277v358h-878v-357h-284l-16 598h110c59 49 105 122 137 217c33 96 55 215 66 356l42 642h954v-1215h170zM479 241h555v972h-369l-25 -383c-20 -257 -74 -453 -161 -589z" />
    <glyph glyph-name="uni0416" unicode="&#x416;" horiz-adv-x="2043" 
d="M1358 593h-173v-593h-300v593h-177l-317 -593h-374l454 781l-432 675h373l324 -587h149v587h300v-587h146l316 587h372l-424 -674l447 -782h-375z" />
    <glyph glyph-name="uni0417" unicode="&#x417;" horiz-adv-x="1263" 
d="M848 1055c0 55 -22 99 -65 131c-43 31 -101 47 -172 47c-64 0 -117 -16 -159 -47c-43 -32 -64 -73 -64 -124h-300c0 79 22 150 66 212c45 64 108 113 190 148c81 35 170 53 267 53c168 0 300 -36 395 -108s143 -174 143 -306c0 -65 -19 -125 -59 -180
c-38 -55 -94 -100 -166 -133c80 -28 141 -70 184 -128c43 -56 64 -127 64 -212c0 -131 -51 -234 -154 -312c-102 -76 -238 -115 -407 -115c-106 0 -201 18 -286 55c-85 36 -149 86 -193 148c-43 64 -65 137 -65 220h302c0 -52 23 -96 68 -130c45 -36 103 -53 174 -53
c80 0 143 18 189 54c47 36 70 82 70 137c0 76 -21 130 -62 164c-41 32 -102 49 -181 49h-179v235h185c143 2 215 67 215 195z" />
    <glyph glyph-name="uni0418" unicode="&#x418;" horiz-adv-x="1434" 
d="M1003 1456h301v-1456h-301v967l-583 -967h-300v1456h300v-969z" />
    <glyph glyph-name="uni041B" unicode="&#x41b;" horiz-adv-x="1446" 
d="M1314 1456v-1456h-301v1213h-388l-24 -514c-10 -173 -32 -310 -66 -409c-34 -100 -84 -173 -149 -220c-65 -46 -155 -69 -268 -70h-78v241l50 5c75 10 129 54 162 130c32 78 52 215 61 412l25 668h976z" />
    <glyph glyph-name="uni0423" unicode="&#x423;" horiz-adv-x="1293" 
d="M676 768l265 688h324l-509 -1201l-41 -79c-75 -131 -191 -197 -346 -197l-105 4l-3 241c16 -3 42 -4 78 -4c42 0 76 7 101 22c26 15 48 42 65 81l37 95l-511 1038h323z" />
    <glyph glyph-name="uni0424" unicode="&#x424;" horiz-adv-x="1672" 
d="M985 1326h18c114 0 217 -25 309 -76c93 -50 165 -121 216 -214s77 -198 77 -316c0 -175 -56 -317 -167 -428c-112 -111 -263 -166 -453 -166v-186h-289v186h-19c-115 0 -219 25 -312 74c-93 50 -165 120 -215 210c-52 90 -77 193 -77 308c0 117 25 221 76 313
s122 164 213 215c91 52 193 79 306 80h28v190h289v-190zM677 1077c-99 0 -177 -31 -235 -94c-56 -63 -85 -151 -85 -265c0 -107 28 -190 85 -252c57 -60 136 -91 239 -91h15v702h-19zM985 1077v-702h20c98 0 175 31 231 93c57 61 85 145 85 252c0 111 -28 199 -83 262
s-135 95 -238 95h-15z" />
    <glyph glyph-name="uni0426" unicode="&#x426;" horiz-adv-x="1554" 
d="M117 1456h300v-1215h583v1215h301v-1215h199l-20 -592h-280v351h-1083v1456z" />
    <glyph glyph-name="uni0427" unicode="&#x427;" horiz-adv-x="1424" 
d="M1292 1456v-1456h-301v552c-91 -19 -187 -29 -286 -29c-185 0 -325 40 -421 121c-95 81 -144 197 -147 350v462h301v-456c1 -83 21 -143 60 -180c40 -37 109 -55 207 -55c99 0 195 10 286 29v662h301z" />
    <glyph glyph-name="uni0428" unicode="&#x428;" horiz-adv-x="1963" 
d="M429 1456v-1215h404v1215h301v-1215h400v1215h300v-1456h-1706v1456h301z" />
    <glyph glyph-name="uni0429" unicode="&#x429;" horiz-adv-x="2091" 
d="M429 1456v-1215h404v1215h301v-1215h400v1215h300v-1224h192l-20 -582h-268v350h-1610v1456h301z" />
    <glyph glyph-name="uni042A" unicode="&#x42a;" horiz-adv-x="1578" 
d="M25 1456h700v-525h234c171 0 307 -41 407 -125c101 -82 151 -194 151 -335s-50 -255 -149 -341c-100 -85 -233 -129 -398 -130h-547v1222h-398v234zM725 689v-448h239c77 0 138 21 184 63c45 42 68 98 68 169c0 66 -22 118 -66 157c-43 38 -103 58 -179 59h-246z" />
    <glyph glyph-name="uni042B" unicode="&#x42b;" horiz-adv-x="1785" 
d="M435 931h234c171 0 307 -41 407 -125c101 -82 151 -194 151 -335s-50 -255 -149 -341c-100 -85 -233 -129 -398 -130h-547v1456h302v-525zM1652 0h-300v1456h300v-1456zM435 689v-448h239c77 0 138 21 184 63c45 42 68 98 68 169c0 66 -22 118 -66 157
c-43 38 -103 58 -179 59h-246z" />
    <glyph glyph-name="uni042C" unicode="&#x42c;" horiz-adv-x="1281" 
d="M430 931h234c171 0 307 -41 408 -125c100 -82 150 -194 150 -335s-50 -255 -150 -341c-99 -85 -232 -129 -397 -130h-547v1456h302v-525zM430 689v-448h239c77 0 138 21 183 63c46 42 69 98 69 169c0 66 -22 118 -65 157c-44 38 -104 58 -180 59h-246z" />
    <glyph glyph-name="uni042D" unicode="&#x42d;" horiz-adv-x="1332" 
d="M363 484c9 -94 36 -162 83 -202c47 -42 114 -62 203 -62c98 0 171 32 218 98c47 64 75 161 82 288h-460v243h459c-8 130 -37 227 -88 289c-50 64 -122 95 -215 95c-91 0 -159 -21 -204 -65c-45 -42 -72 -112 -79 -207h-300c15 159 73 285 174 377c102 92 238 138 409 138
c121 0 228 -28 319 -86c92 -56 163 -138 212 -244c49 -107 74 -231 74 -372v-95c0 -215 -54 -385 -160 -511c-108 -125 -254 -188 -441 -188c-172 0 -310 46 -413 136c-104 92 -162 214 -173 368h300z" />
    <glyph glyph-name="uni042E" unicode="&#x42e;" horiz-adv-x="1932" 
d="M1843 695c0 -143 -25 -269 -76 -377s-123 -191 -217 -250c-95 -59 -203 -88 -325 -88c-111 0 -211 24 -299 72c-89 49 -160 118 -216 209c-54 91 -88 197 -101 318h-167v-579h-300v1456h300v-644h162c6 131 35 247 88 348c52 101 124 178 216 234c93 54 198 82 315 82
c121 0 229 -29 323 -88c95 -58 168 -142 220 -250c51 -110 77 -235 77 -378v-65zM1539 761c0 153 -27 269 -82 348s-133 119 -234 119s-178 -39 -233 -118c-55 -78 -82 -193 -83 -344v-71c0 -149 27 -264 82 -346s133 -123 236 -123c101 0 178 40 232 118
c54 80 81 195 82 346v71z" />
    <glyph glyph-name="uni042F" unicode="&#x42f;" horiz-adv-x="1222" 
d="M803 0v525h-244l-263 -525h-324l311 621c-150 83 -225 211 -225 385c0 143 47 253 140 331s224 118 391 119h515v-1456h-301zM358 984c0 -81 20 -140 60 -177c39 -37 99 -55 178 -55h207v461h-207c-159 0 -238 -76 -238 -229z" />
    <glyph glyph-name="uni0431" unicode="&#x431;" horiz-adv-x="1166" 
d="M648 1022c139 0 249 -46 332 -138s124 -217 124 -375v-14c0 -156 -46 -281 -138 -375s-216 -141 -371 -141c-156 0 -280 51 -373 153c-92 101 -138 239 -138 414v48c1 243 42 434 124 572c80 137 202 224 365 260c85 19 140 37 165 56c25 18 37 43 37 76h234
c0 -105 -28 -183 -85 -236c-56 -53 -156 -93 -300 -122c-85 -17 -153 -51 -202 -101s-83 -120 -100 -211c92 89 201 134 326 134zM593 788c-69 0 -123 -23 -161 -69c-40 -46 -59 -121 -59 -224c0 -92 19 -162 57 -211c38 -48 93 -72 165 -72c70 0 124 24 162 71
s57 117 58 209v24c0 89 -19 156 -59 202c-38 47 -93 70 -163 70z" />
    <glyph glyph-name="uni0432" unicode="&#x432;" horiz-adv-x="1159" 
d="M130 0v1082h452c147 0 260 -26 339 -78s118 -127 118 -224c0 -50 -17 -95 -49 -134c-34 -40 -82 -71 -145 -92c77 -15 138 -44 183 -86c44 -44 66 -96 66 -159c0 -101 -38 -177 -114 -230c-75 -53 -185 -79 -329 -79h-521zM419 449v-218h233c102 0 153 36 153 107
c0 73 -49 110 -146 111h-240zM419 643h179c101 1 152 34 152 98c0 39 -14 67 -42 84c-27 17 -69 25 -126 25h-163v-207z" />
    <glyph glyph-name="uni0433" unicode="&#x433;" horiz-adv-x="858" 
d="M848 848h-448v-848h-289v1082h737v-234z" />
    <glyph glyph-name="uni0434" unicode="&#x434;" horiz-adv-x="1293" 
d="M126 233c65 69 110 138 133 206s36 164 39 289l8 354h796v-849h156v-558h-289v325h-641v-325h-295v558h93zM467 233h347v610h-225l-2 -130c-6 -199 -46 -359 -120 -480z" />
    <glyph glyph-name="uni0436" unicode="&#x436;" horiz-adv-x="1749" 
d="M1152 401h-131v-401h-289v401h-129l-215 -401h-349l341 566l-337 516h358l225 -404h106v404h289v-404h108l226 404h358l-335 -509l344 -573h-355z" />
    <glyph glyph-name="uni0437" unicode="&#x437;" horiz-adv-x="1052" 
d="M679 763c0 38 -13 67 -37 89c-26 20 -61 31 -107 31c-47 0 -86 -10 -115 -29c-30 -20 -45 -48 -45 -84h-289c0 98 41 178 122 239s185 92 312 92c139 0 249 -27 328 -82c80 -55 120 -132 120 -233c0 -48 -14 -92 -44 -132c-28 -41 -69 -73 -122 -97
c123 -43 185 -127 185 -251c0 -99 -43 -178 -127 -238c-86 -58 -199 -88 -340 -88c-131 0 -239 31 -324 92s-127 144 -127 248h289c0 -37 16 -66 49 -89s75 -34 128 -34c51 0 91 12 120 36s43 55 43 94c0 47 -14 81 -41 101c-27 21 -68 31 -123 31h-157v188h167
c90 3 135 41 135 116z" />
    <glyph glyph-name="uni0438" unicode="&#x438;" horiz-adv-x="1162" 
d="M763 1082h289v-1082h-289v668l-362 -668h-290v1082h290v-667z" />
    <glyph glyph-name="uni043A" unicode="&#x43a;" horiz-adv-x="1154" 
d="M535 399h-116v-399h-289v1082h289v-407h103l236 407h365l-354 -515l387 -567h-385z" />
    <glyph glyph-name="uni043B" unicode="&#x43b;" horiz-adv-x="1164" 
d="M1052 1082v-1082h-289v848h-255l-18 -334c-11 -178 -46 -308 -105 -389s-146 -123 -262 -125h-98l-3 235l36 3c52 4 90 35 114 92s39 155 45 293l20 459h815z" />
    <glyph glyph-name="uni043C" unicode="&#x43c;" horiz-adv-x="1555" 
d="M770 341l283 741h362v-1082h-289v664l-259 -664h-194l-254 653v-653h-289v1082h359z" />
    <glyph glyph-name="uni043D" unicode="&#x43d;" horiz-adv-x="1162" 
d="M1049 0h-290v416h-359v-416h-289v1082h289v-434h359v434h290v-1082z" />
    <glyph glyph-name="uni043F" unicode="&#x43f;" horiz-adv-x="1162" 
d="M1052 0h-290v848h-362v-848h-289v1082h941v-1082z" />
    <glyph glyph-name="uni0442" unicode="&#x442;" horiz-adv-x="1043" 
d="M1009 850h-347v-850h-290v850h-341v232h978v-232z" />
    <glyph glyph-name="uni0444" unicode="&#x444;" horiz-adv-x="1496" 
d="M68 533c0 174 36 312 106 415c72 103 169 154 294 154c49 0 93 -10 133 -29v463h289v-464c41 20 87 30 137 30c125 0 223 -51 295 -154c70 -102 106 -247 106 -436c0 -163 -36 -293 -107 -388c-71 -96 -169 -144 -292 -144c-51 0 -98 9 -139 28v-424h-289v423
c-40 -18 -85 -27 -135 -27c-117 0 -210 44 -281 131s-109 207 -116 359zM1138 533c0 108 -16 191 -49 249c-33 57 -79 86 -138 86c-19 0 -39 -2 -61 -7v-643c19 -4 40 -6 63 -6c113 0 175 86 184 258zM357 512c0 -199 61 -299 183 -299c25 0 46 2 61 5v643
c-22 5 -42 7 -59 7c-59 0 -105 -28 -137 -84c-32 -57 -48 -147 -48 -272z" />
    <glyph glyph-name="uni0446" unicode="&#x446;" horiz-adv-x="1248" 
d="M111 1082h289v-849h362v849h290v-851h162l-20 -552h-269v321h-814v1082z" />
    <glyph glyph-name="uni0447" unicode="&#x447;" horiz-adv-x="1134" 
d="M1023 0h-289v340c-54 -10 -104 -15 -151 -15c-163 0 -286 35 -369 104s-125 171 -126 304v349h289v-349c1 -63 16 -107 46 -135c30 -26 83 -40 160 -40c48 0 98 6 151 17v507h289v-1082z" />
    <glyph glyph-name="uni0448" unicode="&#x448;" horiz-adv-x="1694" 
d="M400 1082v-849h297v849h290v-849h297v849h289v-1082h-1462v1082h289z" />
    <glyph glyph-name="uni0449" unicode="&#x449;" horiz-adv-x="1843" 
d="M397 1082v-849h297v849h290v-849h296v849h290v-851h215l-20 -552h-269v321h-1388v1082h289z" />
    <glyph glyph-name="uni044A" unicode="&#x44a;" horiz-adv-x="1343" 
d="M33 1082h598v-317h207c93 0 175 -16 246 -47s125 -76 162 -134c38 -59 57 -127 57 -204c0 -114 -42 -206 -127 -276c-84 -69 -199 -104 -344 -104h-490v848h-309v234zM631 533v-302h205c57 0 101 13 132 40s46 63 46 109c0 47 -15 84 -45 112c-30 27 -74 41 -133 41h-205
z" />
    <glyph glyph-name="uni044B" unicode="&#x44b;" horiz-adv-x="1695" 
d="M420 765h207c93 0 175 -16 246 -47s125 -76 163 -134c37 -59 56 -127 56 -204c0 -114 -42 -206 -126 -276c-85 -69 -200 -104 -345 -104h-491v1082h290v-317zM1552 0h-289v1082h289v-1082zM420 533v-302h205c57 0 101 13 132 40s46 63 46 109c0 47 -15 84 -45 112
c-30 27 -74 41 -133 41h-205z" />
    <glyph glyph-name="uni044C" unicode="&#x44c;" horiz-adv-x="1143" 
d="M420 765h207c93 0 175 -16 246 -47s125 -76 163 -134c37 -59 56 -127 56 -204c0 -114 -42 -206 -126 -276c-85 -69 -200 -104 -345 -104h-491v1082h290v-317zM420 533v-302h205c57 0 101 13 132 40s46 63 46 109c0 47 -15 84 -45 112c-30 27 -74 41 -133 41h-205z" />
    <glyph glyph-name="uni044D" unicode="&#x44d;" horiz-adv-x="1065" 
d="M505 868c-52 0 -93 -14 -124 -44c-31 -28 -46 -67 -46 -116h-272c0 73 19 140 59 201c38 61 92 108 160 142c67 34 142 51 223 51c153 0 274 -50 365 -150c91 -99 136 -235 136 -407v-19c0 -107 -20 -202 -60 -284c-40 -84 -98 -148 -174 -194c-75 -45 -164 -68 -265 -68
c-133 0 -241 38 -322 115s-122 179 -122 307h272c0 -55 15 -101 47 -136c30 -36 72 -54 125 -54c58 0 105 20 140 62c35 40 57 101 65 182h-290v177h290c-19 157 -88 235 -207 235z" />
    <glyph glyph-name="uni044E" unicode="&#x44e;" horiz-adv-x="1662" 
d="M424 667h156c21 135 76 241 166 319c88 77 201 116 336 116c146 0 265 -45 358 -134c92 -89 143 -211 154 -364l2 -74c0 -166 -46 -299 -139 -400c-93 -100 -217 -150 -373 -150c-141 0 -256 41 -346 122c-89 81 -143 192 -161 331h-153v-433h-290v1082h290v-415z
M860 530c0 -103 19 -181 58 -236c39 -54 94 -81 166 -81c71 0 126 27 165 81s58 140 58 257c0 101 -20 179 -59 234s-95 83 -166 83s-125 -28 -164 -82c-39 -56 -58 -141 -58 -256z" />
    <glyph glyph-name="uni044F" unicode="&#x44f;" horiz-adv-x="1145" 
d="M1013 1082v-1082h-288v374h-183l-208 -374h-293l236 423c-65 30 -115 71 -149 122c-36 51 -53 110 -53 175c0 105 41 190 121 258c82 66 190 101 326 104h491zM527 576h198v274h-188c-51 0 -93 -14 -125 -40c-32 -28 -48 -60 -48 -99s15 -71 46 -96s70 -38 117 -39z" />
    <glyph glyph-name="uni0452" unicode="&#x452;" horiz-adv-x="1146" 
d="M647 1189h-254v-225c77 92 173 138 289 138c235 0 354 -136 357 -409v-727c0 -129 -33 -228 -100 -298s-160 -105 -280 -105c-52 0 -100 6 -143 17l14 229c29 -8 62 -12 99 -12c81 0 121 59 121 176v711c0 63 -13 109 -40 138c-27 30 -71 45 -133 45
c-85 0 -146 -33 -184 -98v-769h-289v1189h-156v183h156v164h289v-164h254v-183z" />
    <glyph glyph-name="uni0454" unicode="&#x454;" horiz-adv-x="1065" 
d="M559 213c53 0 97 15 130 44s51 68 52 117h272c-1 -74 -21 -141 -61 -202c-39 -61 -93 -108 -162 -142c-68 -33 -143 -50 -226 -50c-153 0 -275 49 -365 147s-135 234 -135 407v20c0 167 44 300 133 399s211 149 366 149c135 0 243 -38 325 -116c82 -76 124 -179 125 -307
h-272c-1 57 -19 103 -52 137c-33 35 -77 52 -131 52c-125 0 -193 -84 -203 -251h305v-177h-303c8 -78 29 -135 61 -172c34 -37 80 -55 141 -55z" />
    <glyph glyph-name="uni0459" unicode="&#x459;" horiz-adv-x="1758" 
d="M1042 740h198c150 0 266 -34 350 -101c82 -67 124 -157 124 -268c0 -112 -42 -202 -126 -269c-84 -68 -199 -102 -345 -102h-491v848h-245l-18 -334c-11 -177 -46 -306 -103 -387c-58 -81 -144 -124 -259 -127h-104l-2 235l36 3c52 4 90 35 114 92s39 155 45 293l20 459
h806v-342zM1042 508v-277h205c57 0 101 13 132 39c31 25 46 60 46 103c0 41 -15 74 -46 99c-31 24 -75 36 -132 36h-205z" />
    <glyph glyph-name="uni045A" unicode="&#x45a;" horiz-adv-x="1764" 
d="M400 664h359v418h290v-342h198c150 0 267 -34 349 -101c84 -67 125 -157 125 -268c0 -112 -42 -202 -126 -269c-84 -68 -199 -102 -345 -102h-491v432h-359v-432h-289v1082h289v-418zM1049 508v-277h205c57 0 101 13 132 39c31 25 46 60 46 103c0 41 -15 74 -46 99
c-31 24 -75 36 -132 36h-205z" />
    <glyph glyph-name="uni045B" unicode="&#x45b;" horiz-adv-x="1156" 
d="M661 1201h-268v-237c77 92 173 138 289 138c235 0 354 -136 357 -409v-693h-289v685c0 62 -13 108 -40 137c-27 30 -71 45 -133 45c-85 0 -146 -33 -184 -98v-769h-289v1201h-142v183h142v152h289v-152h268v-183z" />
    <glyph glyph-name="uni045F" unicode="&#x45f;" horiz-adv-x="1162" 
d="M400 1082v-849h362v849h290v-1082h-326v-359h-289v359h-326v1082h289z" />
    <glyph glyph-name="uni0460" unicode="&#x460;" horiz-adv-x="1939" 
d="M1811 1456v-989c0 -150 -44 -269 -133 -357c-89 -87 -210 -131 -364 -131c-153 0 -269 54 -349 162c-80 -108 -197 -162 -350 -162s-273 44 -363 131c-88 87 -133 207 -133 358v988h301v-980c0 -171 65 -256 195 -256c61 0 110 20 145 58c36 40 54 102 54 187v991h302
v-982c0 -169 66 -254 198 -254c61 0 108 20 144 58c34 40 52 102 52 187v991h301z" />
    <glyph glyph-name="uni0461" unicode="&#x461;" horiz-adv-x="1680" 
d="M1600 1082v-642c-1 -143 -41 -256 -120 -338c-78 -81 -184 -122 -319 -123h-2c-134 0 -236 48 -307 144c-73 -96 -178 -144 -315 -144c-133 0 -238 41 -317 122c-78 81 -118 193 -120 335v646h290v-650c3 -147 52 -220 147 -220c113 0 170 75 172 224v646h290v-653
c3 -145 57 -217 160 -217c98 0 148 73 151 219v651h290z" />
    <glyph glyph-name="uni0463" unicode="&#x463;" horiz-adv-x="1142" 
d="M676 1082h-256v-292h211c141 -1 253 -38 336 -109s124 -166 124 -284s-41 -213 -123 -285c-82 -73 -193 -110 -332 -112h-506v1082h-157v183h157v296h290v-296h256v-183zM420 558v-327h205c58 0 102 15 133 44c30 29 45 70 45 121c0 48 -15 87 -43 116
c-30 29 -72 45 -128 46h-212z" />
    <glyph glyph-name="uni0464" unicode="&#x464;" horiz-adv-x="1828" 
d="M425 860h175c9 125 40 235 92 328c53 94 123 166 210 215c88 49 188 74 300 74c168 0 303 -45 406 -135s162 -216 178 -379h-300c-7 94 -34 162 -78 205c-46 42 -114 63 -206 63s-163 -30 -212 -91s-78 -154 -87 -280h429v-234h-430c5 -139 32 -240 80 -304
s120 -96 217 -96c92 0 161 21 207 62c45 42 71 108 78 198h300c-11 -157 -69 -280 -174 -370c-104 -90 -241 -135 -411 -135c-179 0 -322 58 -428 173s-164 273 -173 472h-173v-626h-300v1456h300v-596z" />
    <glyph glyph-name="uni0465" unicode="&#x465;" horiz-adv-x="1545" 
d="M407 634h135c15 145 65 260 152 343s201 125 342 125c135 0 243 -38 325 -116c82 -76 124 -179 125 -307h-271c-1 56 -19 101 -52 137c-33 34 -77 52 -132 52c-118 0 -185 -78 -201 -234h325v-183h-326c13 -159 80 -238 203 -238c53 0 97 15 130 45c34 29 52 68 53 116
h271c-1 -113 -44 -206 -130 -282c-84 -74 -191 -112 -318 -112c-142 0 -257 42 -345 126c-88 83 -139 198 -152 345h-134v-451h-290v1082h290v-448z" />
    <glyph glyph-name="uni0466" unicode="&#x466;" horiz-adv-x="1353" 
d="M898 419h-96v-419h-250v419h-85l-137 -419h-315l513 1456h312l511 -1456h-315zM535 627h295l-147 449z" />
    <glyph glyph-name="uni0467" unicode="&#x467;" horiz-adv-x="1145" 
d="M732 269h-77v-269h-191v269h-69l-93 -269h-295l409 1082h297l409 -1082h-295zM460 457h206l-73 210l-30 128l-30 -128z" />
    <glyph glyph-name="uni0468" unicode="&#x468;" horiz-adv-x="1915" 
d="M447 626h333l293 830h312l511 -1456h-315l-138 419h-96v-419h-250v419h-84l-138 -419h-315l147 419h-260v-419h-300v1456h300v-830zM1081 627h294l-147 447z" />
    <glyph glyph-name="uni0469" unicode="&#x469;" horiz-adv-x="1635" 
d="M416 456h252l237 626h296l410 -1082h-295l-95 269h-77v-269h-191v269h-69l-93 -269h-296l102 269h-181v-269h-290v1082h290v-626zM949 457h206l-73 210l-30 128l-30 -128z" />
    <glyph glyph-name="uni046A" unicode="&#x46a;" horiz-adv-x="1785" 
d="M1181 799c165 -5 288 -45 369 -119c80 -73 122 -182 125 -325v-355h-300v343c-1 75 -19 129 -53 161c-36 33 -94 50 -175 51h-91v-555h-300v555h-107c-87 0 -148 -17 -185 -49c-36 -34 -54 -88 -55 -163v-343h-300v341c1 153 44 268 129 343c86 76 219 115 399 116
l-372 656h1290zM910 846l188 364h-376z" />
    <glyph glyph-name="uni046B" unicode="&#x46b;" horiz-adv-x="1502" 
d="M1016 608c129 -15 223 -58 284 -129s91 -171 91 -298v-181h-289v189c-1 74 -16 126 -45 157s-82 46 -157 46v-392h-289v392h-22c-69 0 -117 -16 -145 -47c-29 -31 -43 -84 -44 -157v-188h-289v190c1 130 34 229 97 298c64 69 161 109 292 122l-273 472h1062zM758 629
l126 262h-251z" />
    <glyph glyph-name="uni046C" unicode="&#x46c;" horiz-adv-x="2381" 
d="M706 0v338c0 88 14 165 43 230h-300v-568h-300v1456h300v-652h783l-370 652h1290l-374 -657c165 -5 288 -45 368 -119c81 -73 123 -182 126 -325v-355h-300v343c-1 75 -18 129 -54 161c-34 33 -93 50 -174 51h-91v-555h-300v555h-107c-87 0 -148 -17 -184 -49
c-37 -34 -55 -88 -56 -163v-343h-300zM1507 846l188 364h-376z" />
    <glyph glyph-name="uni046D" unicode="&#x46d;" horiz-adv-x="2060" 
d="M668 0v181c0 85 13 158 40 219h-285v-400h-289v1082h289v-468h633l-271 468h1062l-273 -474c129 -15 223 -58 284 -129s91 -171 91 -298v-181h-290v183c0 75 -14 129 -43 161c-28 32 -81 48 -158 48v-392h-289v392h-22c-69 0 -118 -16 -147 -47c-28 -31 -42 -84 -43 -157
v-188h-289zM1316 629l125 262h-250z" />
    <glyph glyph-name="uni046E" unicode="&#x46e;" horiz-adv-x="1052" 
d="M612 1048c0 51 -18 91 -56 122c-36 30 -95 45 -174 45h-261v241h258c171 0 301 -33 389 -99c90 -66 134 -160 134 -281c0 -158 -76 -268 -228 -330c88 -28 155 -70 202 -128c47 -56 70 -127 70 -210c0 -132 -45 -236 -136 -314c-90 -76 -215 -115 -375 -115h-56
c-73 -1 -109 -33 -109 -94c0 -65 48 -117 145 -156l-82 -177c-103 23 -182 67 -239 131s-86 145 -87 242c0 93 30 165 90 217c60 50 146 77 259 78h74c69 1 124 18 165 52c41 33 61 77 61 132c0 147 -93 220 -279 220h-139v241h159c69 1 122 18 159 49s56 76 56 134z
M491 1785l146 143h247v-11l-302 -281h-183l-302 283v9h247z" />
    <glyph glyph-name="uni046F" unicode="&#x46f;" horiz-adv-x="1031" 
d="M586 757c0 76 -70 114 -211 114h-254v211h271c158 -1 278 -28 360 -80c82 -51 123 -124 123 -218c0 -113 -59 -194 -176 -244c147 -44 221 -123 221 -236c0 -99 -41 -178 -124 -236c-82 -58 -193 -88 -332 -89h-62c-83 -1 -124 -33 -124 -94c0 -66 43 -118 129 -156
l-81 -161c-91 29 -163 76 -216 140c-53 65 -81 137 -82 217c0 83 28 148 84 195c56 46 138 69 246 69h53c65 0 117 11 159 34c40 23 61 53 61 91c0 89 -80 133 -240 133h-153v180h157c127 0 191 43 191 130zM471 1398l147 143h246v-11l-302 -281h-182l-303 282v10h247z" />
    <glyph glyph-name="uni0472" unicode="&#x472;" horiz-adv-x="1409" 
d="M1330 695c0 -143 -25 -269 -76 -377s-123 -191 -218 -250c-94 -59 -202 -88 -324 -88c-121 0 -228 29 -323 87s-168 141 -220 249c-52 107 -78 231 -79 371v72c0 143 26 269 78 379c51 108 124 192 218 250c95 59 203 88 324 88s229 -29 324 -88
c94 -58 167 -142 218 -250c52 -110 78 -235 78 -378v-65zM712 226c95 0 169 35 222 106c54 71 84 173 91 308h-630c7 -135 38 -237 93 -308c54 -71 129 -106 224 -106zM710 1228c-95 0 -169 -34 -222 -104c-54 -68 -85 -169 -92 -302h629c-7 133 -38 234 -93 302
c-54 70 -128 104 -222 104z" />
    <glyph glyph-name="uni0473" unicode="&#x473;" horiz-adv-x="1156" 
d="M64 551c0 108 21 204 62 288c42 84 102 149 180 195c78 45 168 68 270 68c156 0 280 -50 374 -150c92 -101 139 -238 139 -411v-11c0 -108 -21 -204 -63 -288c-41 -84 -100 -149 -178 -194c-76 -45 -167 -68 -270 -68c-149 0 -270 46 -363 139s-143 218 -150 375z
M576 868c-61 0 -110 -21 -148 -63s-61 -101 -70 -176h437c-9 78 -33 137 -71 178c-37 41 -87 61 -148 61zM578 213c61 0 109 20 146 59c37 40 60 98 71 174h-436c9 -74 32 -131 69 -172s87 -61 150 -61z" />
    <glyph glyph-name="uni0474" unicode="&#x474;" horiz-adv-x="1316" 
d="M633 395l19 -91l19 87l207 731c38 123 87 213 146 268c59 56 134 84 225 84l39 -1l-2 -252h-27c-57 0 -98 -39 -121 -118l-330 -1103h-311l-486 1456h318z" />
    <glyph glyph-name="uni0475" unicode="&#x475;" horiz-adv-x="1045" 
d="M482 413l20 -106l19 106l93 355c32 107 76 190 131 248c55 57 126 86 212 86c43 0 78 -6 103 -18l-24 -229l-50 4c-25 0 -48 -10 -68 -30s-34 -45 -43 -74l-234 -755h-276l-348 1082h302z" />
    <glyph glyph-name="uni047A" unicode="&#x47a;" horiz-adv-x="1409" 
d="M1330 695c0 -130 -21 -246 -64 -349c-43 -102 -104 -184 -183 -246c-79 -61 -172 -99 -279 -114v-121h-196v123c-159 23 -285 98 -378 225s-140 289 -140 487v59c0 195 46 356 139 483c93 126 218 201 377 226v107h195v-105c161 -22 290 -96 385 -222
c96 -127 144 -292 144 -495v-58zM1027 761c0 128 -19 230 -59 307c-38 76 -94 125 -167 147v-102h-195v98c-141 -51 -212 -204 -212 -459v-57c0 -124 18 -224 55 -301c37 -76 90 -126 159 -151v93h196v-97c72 23 127 73 166 149c38 78 57 180 57 307v66z" />
    <glyph glyph-name="uni047B" unicode="&#x47b;" horiz-adv-x="1156" 
d="M66 551c0 149 38 272 116 371c76 99 182 157 315 175v106h167v-107c131 -18 234 -76 312 -174c76 -97 115 -223 115 -377v-15c0 -151 -39 -275 -117 -373c-77 -98 -183 -155 -316 -172v-108h-166v109c-132 18 -236 76 -312 174c-76 97 -114 223 -114 376v15zM658 227
c96 38 144 141 144 310v14c0 77 -12 142 -36 193c-23 52 -57 88 -102 107v-97h-167v99c-95 -37 -142 -145 -142 -323c0 -161 46 -262 137 -301v110h166v-112z" />
    <glyph glyph-name="uni047C" unicode="&#x47c;" horiz-adv-x="1938" 
d="M1298 1456c151 0 272 -44 362 -133c89 -89 134 -211 134 -366v-485c0 -151 -44 -271 -134 -360c-88 -89 -209 -133 -362 -133c-147 0 -261 50 -342 151c-81 -101 -194 -151 -341 -151c-153 0 -273 44 -363 133c-88 89 -133 209 -133 362v487c0 153 45 273 135 362
c89 89 210 133 361 133v-243c-59 0 -107 -20 -142 -61c-35 -40 -53 -104 -53 -191v-489c0 -87 18 -151 53 -192c35 -40 83 -60 142 -60c61 0 110 20 145 58c36 40 54 102 54 187v350h285v-350c0 -85 18 -147 53 -187c36 -38 85 -58 146 -58c59 0 106 20 142 60
c35 41 53 105 53 192v489c0 87 -18 151 -53 191c-36 41 -83 61 -142 61v243zM1409 1709v-134h-20c-55 0 -105 6 -151 17s-102 30 -170 56c-66 25 -107 40 -122 42c-15 4 -29 5 -44 5c-68 0 -102 -35 -102 -105v-15h-133v34c0 147 77 220 232 220c38 0 75 -6 111 -19
c36 -12 74 -26 114 -42c41 -15 81 -29 122 -40c41 -12 86 -18 135 -19h28zM829 1336c43 55 66 102 68 142v104h169v-103c0 -33 -16 -69 -48 -109s-68 -70 -107 -91z" />
    <glyph glyph-name="uni047D" unicode="&#x47d;" horiz-adv-x="1655" 
d="M1083 1099c140 0 251 -41 334 -123s124 -195 125 -338v-196c0 -143 -39 -256 -116 -339c-78 -83 -183 -124 -314 -124c-125 0 -220 49 -287 148c-68 -99 -164 -148 -287 -148c-131 0 -235 41 -312 122s-116 192 -118 331v204c0 143 41 256 124 339s194 124 335 124v-233
c-51 0 -92 -18 -123 -56c-31 -36 -46 -95 -46 -174v-194c0 -80 13 -138 38 -175c26 -37 60 -55 102 -55c99 0 149 80 149 240v154h276v-160c0 -81 13 -141 41 -178c26 -37 63 -56 108 -56c42 0 76 18 102 55c25 37 38 95 38 175v194c0 79 -16 138 -46 174
c-32 38 -72 56 -123 56v233zM1287 1371v-134h-24c-59 0 -113 7 -164 21c-51 13 -126 40 -227 79c-34 13 -65 20 -93 20c-69 0 -104 -35 -104 -104v-16h-133v37c0 75 21 130 62 164c41 36 98 53 171 53c55 0 130 -20 225 -59c94 -40 180 -60 259 -61h28zM713 1004
c43 55 66 102 68 142v104h169v-103c0 -33 -16 -69 -48 -109s-68 -70 -107 -91z" />
    <glyph glyph-name="uni047E" unicode="&#x47e;" horiz-adv-x="1939" 
d="M1811 1456v-989c0 -150 -44 -269 -133 -357c-89 -87 -210 -131 -364 -131c-153 0 -269 54 -349 162c-80 -108 -197 -162 -350 -162s-273 44 -363 131c-88 87 -133 207 -133 358v988h301v-980c0 -171 65 -256 195 -256c61 0 110 20 145 58c36 40 54 102 54 187v991h302
v-982c0 -169 66 -254 198 -254c61 0 108 20 144 58c34 40 52 102 52 187v991h301zM525 1687v133h884l2 -133h-362v-127h-181v127h-343z" />
    <glyph glyph-name="uni047F" unicode="&#x47f;" horiz-adv-x="1680" 
d="M1600 1082v-642c-1 -143 -41 -256 -120 -338c-78 -81 -184 -122 -319 -123h-2c-134 0 -236 48 -307 144c-73 -96 -178 -144 -315 -144c-133 0 -238 41 -317 122c-78 81 -118 193 -120 335v646h290v-650c3 -147 52 -220 147 -220c113 0 170 75 172 224v646h290v-653
c3 -145 57 -217 160 -217c98 0 148 73 151 219v651h290zM440 1323v134h824l6 -134h-337v-127h-180v127h-313z" />
    <glyph glyph-name="uni0480" unicode="&#x480;" horiz-adv-x="1272" 
d="M846 -361h-300v348c-140 23 -251 87 -334 193c-82 106 -123 240 -123 402v294c0 117 23 221 69 312c47 92 113 163 199 214c86 50 184 75 294 75c174 0 308 -43 403 -130c94 -87 141 -212 141 -377h-300c0 91 -19 158 -57 200c-38 43 -100 64 -187 64
c-81 0 -145 -32 -192 -95s-70 -152 -70 -267v-294c0 -109 23 -196 69 -260c47 -65 110 -97 191 -98h197v-581z" />
    <glyph glyph-name="uni0481" unicode="&#x481;" horiz-adv-x="1095" 
d="M773 -365h-289v353c-123 20 -220 78 -291 175s-107 220 -107 370v21c0 165 45 298 135 398s211 150 364 150c134 0 241 -38 322 -116c81 -76 121 -179 121 -307h-272c0 55 -16 101 -47 136s-73 53 -124 53c-67 0 -118 -26 -155 -78c-36 -52 -54 -130 -55 -233v-31
c0 -209 72 -314 215 -314h183v-577z" />
    <glyph glyph-name="uni0482" unicode="&#x482;" horiz-adv-x="1275" 
d="M601 449l289 -172l-72 -128l-291 170l-181 -319h-175l225 398l-289 171l71 128l293 -171l202 360l-290 171l73 130l291 -171l185 326h172l-228 -405l293 -171l-76 -127l-288 170z" />
    <glyph glyph-name="uni0483" unicode="&#x483;" horiz-adv-x="0" 
d="M-732 1312v-126l-177 1l1 238h546l-1 108l177 -1v-220h-546z" />
    <glyph glyph-name="uni0484" unicode="&#x484;" horiz-adv-x="0" 
d="M-380 1557c159 0 238 -73 238 -220v-34h-136v16c0 69 -35 104 -106 104c-29 0 -60 -6 -93 -19l-109 -41c-102 -39 -194 -59 -277 -60h-41v134c61 0 110 4 148 13s92 26 160 52c70 26 116 42 141 47s50 8 75 8z" />
    <glyph glyph-name="uni0485" unicode="&#x485;" horiz-adv-x="0" 
d="M-618 1500v143h189l-1 -161l59 -108l-82 -68z" />
    <glyph glyph-name="uni0486" unicode="&#x486;" horiz-adv-x="0" 
d="M-519 1306l-82 68l59 108l-1 161h189v-143z" />
    <glyph glyph-name="uni0488" unicode="&#x488;" horiz-adv-x="0" 
d="M-739 1267c0 56 19 101 57 136c39 35 90 52 153 52s114 -17 153 -52s58 -80 58 -136h-112c0 31 -8 55 -26 73c-16 19 -41 28 -73 28c-31 0 -55 -9 -71 -26c-18 -18 -26 -43 -26 -75h-113zM-148 990c0 56 19 101 58 136s89 52 151 52c63 0 115 -17 153 -52
c40 -34 59 -79 59 -136h-113c0 33 -9 58 -26 75c-18 17 -42 26 -73 26c-29 0 -53 -9 -69 -27c-18 -17 -26 -42 -26 -74h-114zM38 487c0 57 20 102 58 137c40 34 90 51 152 51c63 0 114 -17 153 -52s58 -80 58 -136h-112c0 33 -9 58 -27 75c-17 17 -41 26 -72 26
s-54 -9 -72 -28c-16 -18 -25 -42 -25 -73h-113zM-158 -32c0 56 19 101 58 136s89 52 151 52c63 0 114 -17 153 -52s58 -80 58 -136h-112c0 33 -9 58 -26 75c-18 17 -42 26 -73 26c-30 0 -53 -9 -71 -27c-16 -19 -25 -43 -25 -74h-113zM-734 -316c0 56 19 101 58 136
c38 35 89 52 152 52s114 -17 153 -52s58 -80 58 -136h-112c0 31 -9 55 -25 74c-18 18 -42 27 -74 27c-31 0 -54 -9 -72 -27c-16 -19 -25 -43 -25 -74h-113zM-1312 990c0 56 19 101 58 136s90 52 153 52s114 -17 153 -52s58 -80 58 -136h-112c0 31 -8 55 -26 74
c-16 18 -41 27 -73 27c-31 0 -55 -9 -71 -27c-18 -17 -26 -42 -26 -74h-114zM-1488 487c0 57 20 102 58 137c40 34 90 51 152 51c63 0 114 -17 153 -52s58 -80 58 -136h-112c0 33 -9 58 -27 75c-17 17 -41 26 -72 26s-54 -9 -72 -28c-16 -18 -25 -42 -25 -73h-113z
M-1322 -32c0 57 20 102 58 136c40 35 90 52 152 52c63 0 114 -17 154 -52c38 -34 58 -79 58 -136h-113c0 33 -9 58 -27 75c-17 17 -41 26 -72 26c-30 0 -54 -9 -70 -27c-18 -17 -26 -42 -26 -74h-114z" />
    <glyph glyph-name="uni0489" unicode="&#x489;" horiz-adv-x="0" 
d="M-397 -60l11 -14l-122 -339h-96l70 353h137zM-592 1126l-12 14l122 338h96l-70 -352h-136zM85 631l13 12l333 -124v-98l-346 71v139zM-1078 433l-13 -12l-333 124v98l346 -71v-139zM-154 1002l2 16l320 153l68 -68l-293 -200zM-838 21l-2 -17l-320 -153l-69 69l294 200z
M-978 860l-17 2l-148 326l65 69l198 -299zM-16 161l16 -2l149 -325l-66 -71l-196 299z" />
    <glyph glyph-name="uni048A" unicode="&#x48a;" horiz-adv-x="1592" 
d="M1003 1456h301v-1456h-301v967l-583 -967h-300v1456h300v-969zM1061 1839c0 -89 -32 -160 -95 -215c-64 -55 -148 -82 -251 -82s-187 27 -251 81c-63 54 -95 126 -95 216h205c0 -42 12 -75 38 -97c24 -24 59 -35 103 -35c43 0 77 11 102 35c25 22 37 55 37 97h207z
M1329 -409l-151 79l36 65c45 81 68 162 69 243v224h244l-1 -200c-1 -74 -19 -149 -56 -224s-84 -138 -141 -187z" />
    <glyph glyph-name="uni048B" unicode="&#x48b;" horiz-adv-x="1336" 
d="M763 1082h289v-1082h-289v668l-362 -668h-290v1082h290v-667zM933 1521c0 -89 -32 -160 -95 -215c-64 -55 -148 -82 -251 -82s-187 27 -251 81c-63 54 -95 126 -95 216h205c0 -42 12 -75 38 -97c24 -24 59 -35 103 -35c43 0 77 11 102 35c25 22 37 55 37 97h207z
M1079 -409l-151 79l36 65c45 81 68 162 69 243v224h244l-1 -200c-1 -74 -19 -149 -56 -224s-84 -138 -141 -187z" />
    <glyph glyph-name="uni048D" unicode="&#x48d;" horiz-adv-x="1142" 
d="M676 1273h-256v-483h211c141 -1 253 -38 336 -109s124 -166 124 -284s-41 -213 -123 -285c-82 -73 -193 -110 -332 -112h-506v1273h-157v183h157v159h290v-159h256v-183zM420 558v-327h205c58 0 102 15 133 44c30 29 45 70 45 121c0 48 -15 87 -43 116
c-30 29 -72 45 -128 46h-212z" />
    <glyph glyph-name="uni048E" unicode="&#x48e;" horiz-adv-x="1288" 
d="M430 513v-513h-300v1456h568c109 0 206 -20 288 -60c84 -40 147 -97 192 -170c45 -74 67 -158 67 -252c0 -137 -46 -247 -138 -330l118 -132l-102 -91l-132 148c-82 -37 -180 -56 -293 -56h-268zM916 859c17 31 26 68 26 113c0 71 -21 129 -63 173s-100 67 -174 68h-275
v-457h268c44 0 81 5 112 16l-123 139l102 91z" />
    <glyph glyph-name="uni048F" unicode="&#x48f;" horiz-adv-x="1154" 
d="M1085 531c0 -171 -40 -307 -119 -408l101 -120l-105 -88l-98 117c-58 -35 -124 -52 -199 -52c-109 0 -198 38 -265 114v-510h-289v1498h268l10 -106c70 84 161 126 274 126c133 0 237 -49 311 -148s111 -235 111 -408v-15zM796 552c0 101 -18 178 -54 233
c-35 55 -87 82 -155 82c-91 0 -153 -35 -187 -104v-443c35 -71 98 -107 189 -107c39 0 73 9 101 28l-112 135l104 89l89 -108c17 49 25 114 25 195z" />
    <glyph glyph-name="uni0490" unicode="&#x490;" horiz-adv-x="1137" 
d="M1093 1223h-12v-10h-653v-1213h-301v1456h677v373h289v-606z" />
    <glyph glyph-name="uni0491" unicode="&#x491;" horiz-adv-x="945" 
d="M885 848h-488v-848h-289v1082h488v315h289v-549z" />
    <glyph glyph-name="uni0494" unicode="&#x494;" horiz-adv-x="1275" 
d="M1085 1213h-653v-377h164c194 0 344 -51 450 -154c105 -102 158 -246 158 -433c0 -84 -12 -163 -36 -239c-23 -74 -59 -139 -108 -192c-96 -105 -229 -158 -399 -158l-1 221c84 0 148 30 190 89c44 59 65 147 65 264c1 244 -105 366 -318 366h-165v-600h-300v1456h953
v-243z" />
    <glyph glyph-name="uni0495" unicode="&#x495;" horiz-adv-x="1083" 
d="M845 848h-448v-183h47c180 0 320 -43 420 -129c99 -85 149 -205 149 -358c1 -98 -32 -190 -101 -278c-69 -86 -159 -149 -271 -186l-120 193c65 29 115 65 149 108c36 43 53 97 54 163c0 84 -25 147 -74 188c-49 42 -116 63 -201 63h-52v-429h-289v1082h737v-234z" />
    <glyph glyph-name="uni0496" unicode="&#x496;" horiz-adv-x="2189" 
d="M1358 593h-173v-593h-300v593h-177l-317 -593h-374l454 781l-432 675h373l324 -587h149v587h300v-587h146l316 587h372l-424 -674l447 -782h-375zM2173 -357h-289v562h289v-562z" />
    <glyph glyph-name="uni0497" unicode="&#x497;" horiz-adv-x="1861" 
d="M1152 401h-131v-401h-289v401h-129l-215 -401h-349l341 566l-337 516h358l225 -404h106v404h289v-404h108l226 404h358l-335 -509l344 -573h-355zM1838 -357h-289v562h289v-562z" />
    <glyph glyph-name="uni049A" unicode="&#x49a;" horiz-adv-x="1522" 
d="M605 595h-173v-595h-300v1456h300v-583h137l356 583h366l-449 -689l496 -767h-358zM1457 -357h-289v562h289v-562z" />
    <glyph glyph-name="uni049B" unicode="&#x49b;" horiz-adv-x="1331" 
d="M535 399h-116v-399h-289v1082h289v-407h103l236 407h365l-354 -515l387 -567h-385zM1272 -357h-289v562h289v-562z" />
    <glyph glyph-name="uni049C" unicode="&#x49c;" horiz-adv-x="1355" 
d="M1343 1456l-380 -666l420 -790h-384l-267 591h-54v-228h-167v228h-81v-591h-302v1456h302v-589h81v258h167v-258h37l255 589h373z" />
    <glyph glyph-name="uni049D" unicode="&#x49d;" horiz-adv-x="1233" 
d="M1216 1082l-293 -514l310 -568h-370l-166 399h-47v-170h-152v170h-79v-399h-289v1082h289v-407h79v190h152v-190h45l156 407h365z" />
    <glyph glyph-name="uni04A0" unicode="&#x4a0;" horiz-adv-x="1691" 
d="M984 595h-172v-595h-301v1222h-474v234h775v-583h137l356 583h366l-449 -689l496 -767h-359z" />
    <glyph glyph-name="uni04A1" unicode="&#x4a1;" horiz-adv-x="1465" 
d="M858 399h-115v-399h-289v847h-396v235h685v-407h102l237 407h365l-354 -515l386 -567h-385z" />
    <glyph glyph-name="uni04A2" unicode="&#x4a2;" horiz-adv-x="1600" 
d="M1315 0h-300v624h-585v-624h-300v1456h300v-590h585v590h300v-1456zM1534 -357h-289v562h289v-562z" />
    <glyph glyph-name="uni04A3" unicode="&#x4a3;" horiz-adv-x="1329" 
d="M1049 0h-290v416h-359v-416h-289v1082h289v-434h359v434h290v-1082zM1270 -357h-289v562h289v-562z" />
    <glyph glyph-name="uni04A4" unicode="&#x4a4;" horiz-adv-x="2017" 
d="M430 866h585v590h923v-234h-623v-1222h-300v624h-585v-624h-300v1456h300v-590z" />
    <glyph glyph-name="uni04A5" unicode="&#x4a5;" horiz-adv-x="1446" 
d="M397 648h359v434h629v-234h-339v-848h-290v416h-359v-416h-289v1082h289v-434z" />
    <glyph glyph-name="uni04A6" unicode="&#x4a6;" horiz-adv-x="2140" 
d="M1316 834h143c194 0 344 -51 449 -154c106 -102 159 -246 159 -433c0 -84 -12 -163 -35 -239c-24 -74 -60 -139 -109 -192c-96 -105 -229 -158 -399 -158l-1 221c84 0 147 30 191 89c42 59 64 147 64 264c1 244 -105 366 -318 366h-144v-598h-301v1213h-583v-1213h-300
v1456h1184v-622z" />
    <glyph glyph-name="uni04A7" unicode="&#x4a7;" horiz-adv-x="1773" 
d="M1049 673h85c185 0 329 -43 434 -127c104 -86 156 -206 156 -361c1 -98 -32 -190 -100 -277c-68 -86 -159 -148 -272 -186l-120 193c65 29 115 64 150 107s53 97 53 163c0 80 -25 142 -75 185c-51 43 -122 66 -213 67h-98v-437h-290v848h-362v-848h-289v1082h941v-409z
" />
    <glyph glyph-name="uni04A8" unicode="&#x4a8;" horiz-adv-x="1645" 
d="M1550 -13c-148 0 -284 23 -407 68c-104 -51 -220 -76 -349 -76c-134 0 -254 29 -360 87c-107 58 -190 139 -250 244s-90 221 -90 349v212c0 113 22 217 66 309c44 94 106 166 186 218c80 53 170 79 270 79v-253c-62 0 -111 -32 -148 -98c-37 -64 -55 -148 -56 -249v-218
c0 -129 35 -233 105 -311c70 -79 162 -118 277 -118l60 3c-137 134 -205 302 -205 504v190c0 104 19 198 55 283c38 85 88 150 154 196c64 47 138 70 220 70c89 0 169 -25 240 -75c70 -50 124 -121 164 -213c38 -92 58 -195 58 -310v-168c0 -185 -55 -343 -166 -476
c55 -11 113 -16 176 -16v-231zM933 731c0 -77 15 -147 44 -211c29 -65 72 -120 129 -166c88 89 132 211 132 364v194c0 111 -13 190 -38 239s-66 73 -122 73c-93 0 -142 -90 -145 -270v-223z" />
    <glyph glyph-name="uni04A9" unicode="&#x4a9;" horiz-adv-x="1322" 
d="M1266 -26c-133 0 -249 18 -348 53c-82 -32 -170 -48 -265 -48c-167 0 -303 52 -409 156s-159 238 -159 402v90c0 90 19 172 55 245c38 74 88 131 154 170c64 40 138 60 219 60v-241c-39 -5 -69 -29 -91 -70s-33 -95 -33 -162v-100c0 -89 23 -162 70 -219s108 -86 184 -89
c-64 86 -96 190 -96 311v154c0 120 32 219 95 298c64 78 146 117 247 117c105 0 190 -43 257 -131c66 -86 99 -199 99 -337v-141c0 -133 -45 -246 -135 -339c48 -9 100 -14 156 -14v-165zM761 517c0 -91 30 -169 91 -234c69 54 104 131 104 230v145c0 61 -9 110 -28 148
c-19 36 -42 55 -69 55c-28 0 -51 -17 -70 -50s-28 -79 -28 -137v-157z" />
    <glyph glyph-name="uni04B2" unicode="&#x4b2;" horiz-adv-x="1365" 
d="M651 954l273 502h345l-424 -722l435 -734h-349l-280 510l-280 -510h-349l435 734l-424 722h345zM1349 -357h-289v562h289v-562z" />
    <glyph glyph-name="uni04B3" unicode="&#x4b3;" horiz-adv-x="1111" 
d="M523 759l182 323h309l-308 -530l321 -552h-310l-193 340l-192 -340h-311l321 552l-307 530h310zM1088 -357h-289v562h289v-562z" />
    <glyph glyph-name="uni04B4" unicode="&#x4b4;" horiz-adv-x="1833" 
d="M366 1222h-332v234h961v-234h-328v-981h583v1215h301v-1215h199l-20 -592h-280v351h-1084v1222z" />
    <glyph glyph-name="uni04B5" unicode="&#x4b5;" horiz-adv-x="1407" 
d="M265 848h-220v234h707v-234h-198v-615h362v849h290v-851h162l-20 -552h-269v321h-814v848z" />
    <glyph glyph-name="uni04B6" unicode="&#x4b6;" horiz-adv-x="1572" 
d="M1292 1456v-1456h-301v552c-91 -19 -187 -29 -286 -29c-185 0 -325 40 -421 121c-95 81 -144 197 -147 350v462h301v-456c1 -83 21 -143 60 -180c40 -37 109 -55 207 -55c99 0 195 10 286 29v662h301zM1507 -357h-289v562h289v-562z" />
    <glyph glyph-name="uni04B7" unicode="&#x4b7;" horiz-adv-x="1303" 
d="M1023 0h-289v340c-54 -10 -104 -15 -151 -15c-163 0 -286 35 -369 104s-125 171 -126 304v349h289v-349c1 -63 16 -107 46 -135c30 -26 83 -40 160 -40c48 0 98 6 151 17v507h289v-1082zM1244 -357h-289v562h289v-562z" />
    <glyph glyph-name="uni04B8" unicode="&#x4b8;" horiz-adv-x="1393" 
d="M410 1456v-451c0 -76 16 -133 46 -170c32 -37 83 -60 154 -67v290h166v-289c69 6 131 14 188 25v662h300v-1456h-300v552c-47 -10 -109 -18 -188 -25v-232h-166v230c-166 10 -290 56 -374 137c-82 81 -125 194 -126 338v456h300z" />
    <glyph glyph-name="uni04B9" unicode="&#x4b9;" horiz-adv-x="1147" 
d="M1040 0h-290v340c-25 -5 -56 -10 -92 -13v-149h-166v153c-126 14 -222 54 -286 121c-66 67 -99 158 -102 274v356h289v-357c3 -85 36 -137 99 -155v258h166v-268c31 3 61 7 92 14v508h290v-1082z" />
    <glyph glyph-name="uni04BA" unicode="&#x4ba;" horiz-adv-x="1431" 
d="M134 0v1456h301v-553c31 7 76 13 133 19c58 7 109 10 153 10c185 0 325 -40 421 -121c95 -81 144 -197 147 -350v-461h-301v455c-1 83 -21 143 -60 180c-40 37 -109 55 -207 55c-97 0 -192 -10 -286 -30v-660h-301z" />
    <glyph glyph-name="uni04BC" unicode="&#x4bc;" horiz-adv-x="1550" 
d="M959 -23c-209 0 -373 56 -490 169s-176 269 -176 468v38c-102 17 -181 63 -237 138c-55 75 -83 172 -83 292h199c0 -111 40 -181 121 -212c1 113 27 216 78 309s123 165 215 218c93 53 194 79 304 78c179 0 318 -60 417 -180s149 -291 149 -513v-154h-863v-21
c0 -121 31 -212 95 -275c62 -62 153 -93 271 -93c133 0 255 21 366 62l49 -247c-45 -23 -106 -41 -182 -56c-75 -14 -153 -21 -233 -21zM890 1211c-90 0 -162 -31 -215 -93c-53 -63 -81 -145 -82 -248h563v31c0 101 -23 177 -68 231c-45 52 -111 79 -198 79z" />
    <glyph glyph-name="uni04BD" unicode="&#x4bd;" horiz-adv-x="1224" 
d="M758 -20c-154 0 -280 45 -377 136c-97 90 -150 206 -159 349c-95 20 -167 65 -216 134s-74 157 -74 263h181c0 -105 39 -172 117 -203c21 135 75 243 164 323s199 120 332 120c149 0 265 -47 350 -140c84 -94 126 -226 126 -397v-118h-688c9 -71 37 -127 84 -170
s106 -64 178 -64c111 0 198 40 261 121l142 -159c-43 -61 -102 -109 -175 -143c-74 -35 -156 -52 -246 -52zM724 868c-57 0 -103 -19 -138 -58c-36 -39 -59 -94 -69 -166h401v23c-1 64 -19 113 -52 149c-33 34 -81 52 -142 52z" />
    <glyph glyph-name="uni04C3" unicode="&#x4c3;" horiz-adv-x="1330" 
d="M823 824c151 -23 267 -84 349 -184c81 -99 122 -231 122 -395c0 -120 -23 -226 -70 -318c-46 -92 -110 -161 -192 -207c-81 -46 -178 -69 -290 -69l-1 230c82 0 145 29 187 87c44 57 65 144 65 260c1 241 -102 362 -311 362h-252v-590h-302v1456h302v-585h99l358 585h372
z" />
    <glyph glyph-name="uni04C4" unicode="&#x4c4;" horiz-adv-x="1169" 
d="M781 601c109 -33 192 -88 249 -163c56 -76 84 -170 84 -282c1 -96 -32 -187 -100 -272c-68 -86 -159 -148 -272 -186l-120 193c65 29 115 64 150 105c35 42 52 95 53 160c0 162 -101 243 -304 243h-102v-399h-289v1082h289v-407h87l252 407h365z" />
    <glyph glyph-name="uni04C5" unicode="&#x4c5;" horiz-adv-x="1600" 
d="M1314 1456v-1456h-301v1213h-388l-24 -514c-10 -173 -32 -310 -66 -409c-34 -100 -84 -173 -149 -220c-65 -46 -155 -69 -268 -70h-78v241l50 5c75 10 129 54 162 130c32 78 52 215 61 412l25 668h976zM1337 -409l-151 79l36 65c45 81 68 162 69 243v224h244l-1 -200
c-1 -74 -19 -149 -56 -224s-84 -138 -141 -187z" />
    <glyph glyph-name="uni04C6" unicode="&#x4c6;" horiz-adv-x="1336" 
d="M1052 1082v-1082h-289v848h-255l-18 -334c-11 -178 -46 -308 -105 -389s-146 -123 -262 -125h-98l-3 235l36 3c52 4 90 35 114 92s39 155 45 293l20 459h815zM1080 -409l-151 79l36 65c45 81 68 162 69 243v224h244l-1 -200c-1 -74 -19 -149 -56 -224s-84 -138 -141 -187
z" />
    <glyph glyph-name="uni04C7" unicode="&#x4c7;" horiz-adv-x="1448" 
d="M432 1456v-619h583v619h301v-1480c0 -133 -34 -236 -103 -306c-69 -72 -164 -107 -285 -107c-53 0 -102 6 -147 17l14 238c31 -8 64 -12 100 -12c80 0 120 58 120 173v616h-583v-595h-300v1456h300z" />
    <glyph glyph-name="uni04C8" unicode="&#x4c8;" horiz-adv-x="1156" 
d="M397 1082v-434h359v434h290v-1118c-1 -128 -34 -227 -100 -296c-67 -70 -160 -105 -280 -105c-53 0 -101 6 -144 17l15 229c29 -8 62 -12 99 -12c80 0 120 58 120 175v444h-359v-416h-289v1082h289z" />
    <glyph glyph-name="uni04C9" unicode="&#x4c9;" horiz-adv-x="1604" 
d="M1315 0h-300v624h-585v-624h-300v1456h300v-590h585v590h300v-1456zM1341 -409l-151 79l36 65c45 81 68 162 69 243v224h244l-1 -200c-1 -74 -19 -149 -56 -224s-84 -138 -141 -187z" />
    <glyph glyph-name="uni04CA" unicode="&#x4ca;" horiz-adv-x="1333" 
d="M1049 0h-290v416h-359v-416h-289v1082h289v-434h359v434h290v-1082zM1077 -409l-151 79l36 65c45 81 68 162 69 243v224h244l-1 -200c-1 -74 -19 -149 -56 -224s-84 -138 -141 -187z" />
    <glyph glyph-name="uni04CD" unicode="&#x4cd;" horiz-adv-x="1946" 
d="M522 1456l374 -1056l372 1056h394v-1456h-301v398l30 687l-393 -1085h-206l-392 1084l30 -686v-398h-300v1456h392zM1683 -409l-151 79l36 65c45 81 68 162 69 243v224h244l-1 -200c-1 -74 -19 -149 -56 -224s-84 -138 -141 -187z" />
    <glyph glyph-name="uni04CE" unicode="&#x4ce;" horiz-adv-x="1699" 
d="M770 341l283 741h362v-1082h-289v664l-259 -664h-194l-254 653v-653h-289v1082h359zM1442 -409l-151 79l36 65c45 81 68 162 69 243v224h244l-1 -200c-1 -74 -19 -149 -56 -224s-84 -138 -141 -187z" />
    <glyph glyph-name="uni04D8" unicode="&#x4d8;" horiz-adv-x="1423" 
d="M620 1476c221 0 394 -61 519 -182s187 -289 187 -504v-139c0 -127 -27 -243 -81 -345c-54 -104 -129 -184 -225 -241c-97 -57 -203 -86 -319 -85c-198 0 -352 60 -461 179c-110 119 -165 290 -165 512v155h950c-5 125 -41 221 -110 288c-69 66 -167 99 -295 99
c-136 0 -265 -21 -387 -63l-49 247c53 25 118 44 197 58s158 21 239 21zM701 241c89 0 161 30 218 90s91 144 103 251h-647v-31c0 -101 28 -178 84 -231s137 -79 242 -79z" />
    <glyph glyph-name="uni04E0" unicode="&#x4e0;" horiz-adv-x="1184" 
d="M752 1213h-609v243h953l1 -200l-357 -387c123 -22 218 -72 284 -151c68 -78 101 -181 101 -310c0 -130 -48 -234 -145 -312s-227 -117 -391 -117c-97 0 -184 17 -263 52c-78 35 -138 84 -182 147c-42 64 -64 139 -64 226h300c0 -55 20 -99 60 -133c39 -34 89 -51 149 -51
c71 0 128 18 171 53s65 82 65 139c0 91 -22 159 -67 204c-44 44 -114 66 -211 66h-133v188z" />
    <glyph glyph-name="uni04E1" unicode="&#x4e1;" horiz-adv-x="1186" 
d="M750 848h-613v234h951l1 -191l-358 -398c124 -21 220 -71 287 -149s101 -182 101 -311c0 -130 -48 -234 -144 -311c-96 -78 -225 -117 -387 -117c-96 0 -183 17 -261 52s-138 84 -181 147s-64 138 -64 225h290c0 -56 20 -102 62 -137c40 -35 92 -53 154 -53
c72 0 130 18 175 55s67 84 67 143c0 93 -22 161 -68 205c-44 45 -115 67 -212 67h-137v184z" />
    <glyph glyph-name="uni04FA" unicode="&#x4fa;" horiz-adv-x="1230" 
d="M1173 1213h-653v-1213h-300v1456h953v-243zM736 666h-699v183h699v-183zM785 258v-298c-1 -127 -35 -224 -101 -294c-67 -68 -160 -103 -279 -103c-51 0 -99 6 -142 17l14 231c29 -8 61 -12 98 -12c80 0 120 57 120 172v287h290z" />
    <glyph glyph-name="uni04FB" unicode="&#x4fb;" horiz-adv-x="939" 
d="M929 848h-448v-848h-289v1082h737v-234zM721 490h-699v183h699v-183zM716 252v-298c-1 -127 -35 -224 -102 -294c-66 -68 -159 -103 -278 -103c-51 0 -99 6 -142 17l14 231c29 -8 61 -12 98 -12c80 0 120 57 120 172v287h290z" />
    <glyph glyph-name="uni04FC" unicode="&#x4fc;" horiz-adv-x="1434" 
d="M651 954l273 502h345l-424 -722l435 -734h-349l-280 510l-280 -510h-349l435 734l-424 722h345zM1418 258v-298c-1 -127 -35 -224 -102 -294c-66 -68 -159 -103 -278 -103c-51 0 -99 6 -142 17l14 231c29 -8 61 -12 98 -12c80 0 120 57 120 172v287h290z" />
    <glyph glyph-name="uni04FD" unicode="&#x4fd;" horiz-adv-x="1180" 
d="M523 759l182 323h309l-308 -530l321 -552h-310l-193 340l-192 -340h-311l321 552l-307 530h310zM1157 258v-298c-1 -127 -35 -224 -101 -294c-67 -68 -160 -103 -279 -103c-51 0 -99 6 -142 17l14 231c29 -8 61 -12 98 -12c80 0 120 57 120 172v287h290z" />
    <glyph glyph-name="uni0500" unicode="&#x500;" horiz-adv-x="1281" 
d="M866 960v496h301v-1456h-541c-109 0 -206 20 -290 60c-84 41 -149 98 -194 171c-46 73 -69 157 -69 250c0 92 23 175 67 247c46 74 110 130 195 171s181 61 289 61h242zM866 241v476h-240c-77 0 -138 -22 -183 -65c-45 -44 -68 -100 -68 -169c0 -70 22 -127 66 -173
c44 -44 104 -68 179 -69h246z" />
    <glyph glyph-name="uni0502" unicode="&#x502;" horiz-adv-x="1858" 
d="M667 0c-109 0 -206 20 -289 60c-84 41 -149 98 -194 170c-45 74 -68 157 -68 251c0 144 51 260 152 347c102 88 236 132 403 132h237v496h301v-1214h67c57 1 102 25 135 70c33 46 52 111 56 194l-2 77c-9 145 -29 257 -58 334h293c18 -54 34 -123 48 -209
c14 -84 20 -152 19 -202c-3 -153 -46 -275 -129 -366c-84 -90 -199 -137 -346 -140h-625zM908 241v476h-241c-76 0 -137 -22 -182 -65c-45 -44 -68 -100 -68 -169c0 -70 22 -127 66 -173c44 -44 103 -68 178 -69h247z" />
    <glyph glyph-name="uni0503" unicode="&#x503;" horiz-adv-x="1748" 
d="M90 533c0 175 38 313 113 415c75 103 179 154 310 154c99 0 181 -39 245 -117v575h289v-1183c0 -51 11 -91 34 -120s52 -43 87 -43c67 1 119 30 154 86c35 55 54 132 57 229c3 125 -18 259 -61 403h283c19 -68 35 -135 49 -202c13 -66 19 -133 18 -201
c-1 -112 -23 -209 -65 -292s-101 -146 -177 -191s-162 -67 -258 -67c-177 -3 -297 58 -360 182c-70 -121 -169 -182 -297 -182c-130 0 -233 48 -308 145c-75 96 -113 227 -113 394v15zM758 783c-41 56 -98 84 -172 84c-67 0 -118 -29 -154 -86c-35 -57 -53 -147 -53 -269
c0 -199 68 -299 205 -299c80 0 140 29 181 88l-7 74v408z" />
    <glyph glyph-name="uni0504" unicode="&#x504;" horiz-adv-x="1613" 
d="M203 594v246h193c88 1 152 17 193 50s61 83 61 152c0 112 -82 168 -245 168h-340v246h353c172 -1 304 -37 395 -108s137 -173 137 -308c0 -158 -95 -269 -284 -334c182 -39 275 -141 280 -305v-81c-1 -27 6 -50 20 -69s33 -28 58 -28c62 1 109 29 142 83
c32 55 50 129 53 223c3 125 -18 259 -61 403h294c17 -65 33 -132 48 -199c14 -67 20 -135 19 -204c-1 -113 -24 -210 -67 -293s-104 -146 -181 -190c-77 -45 -165 -67 -264 -67c-229 -5 -349 108 -362 341v63c0 63 -18 114 -53 153s-86 58 -151 58h-238z" />
    <glyph glyph-name="uni0505" unicode="&#x505;" horiz-adv-x="1316" 
d="M790 258c-1 -63 21 -95 68 -95c47 1 83 25 108 69c26 46 40 108 42 187c3 102 -17 208 -60 319h282c30 -89 49 -155 57 -198s12 -83 11 -121c-3 -136 -43 -244 -120 -325c-78 -81 -180 -121 -305 -121c-121 -2 -211 16 -272 53c-61 38 -94 101 -101 188v72
c0 69 -38 104 -115 104h-253l-2 220h190c100 1 150 38 150 111c0 85 -55 127 -164 127h-255l-6 234h281c136 -2 242 -31 319 -86c77 -56 115 -135 115 -237c0 -103 -55 -179 -164 -228c126 -30 191 -102 194 -216v-57z" />
    <glyph glyph-name="uni0506" unicode="&#x506;" horiz-adv-x="1199" 
d="M130 577l-1 233h254c155 3 232 70 232 199c0 69 -21 121 -63 158c-43 37 -102 55 -177 55h-304l-6 234h325c162 -3 288 -42 378 -118c90 -75 135 -180 135 -314c0 -148 -78 -256 -233 -325c162 -47 243 -163 243 -346v-102h231l-1 -200c-1 -74 -19 -149 -56 -224
s-84 -138 -141 -187l-151 79l44 82c35 69 55 135 59 199h-211c-40 33 -61 112 -64 238v106c0 155 -78 233 -233 233h-260z" />
    <glyph glyph-name="uni0507" unicode="&#x507;" horiz-adv-x="1145" 
d="M164 384l-1 202h252c59 0 103 11 133 34c29 23 44 53 44 91c0 40 -16 73 -46 99c-32 26 -74 39 -128 40h-301l-8 232h302c144 0 259 -31 344 -94c85 -62 128 -147 128 -254c0 -105 -53 -186 -159 -243c112 -43 169 -127 172 -253h212l-1 -200c-1 -74 -19 -149 -56 -224
s-84 -138 -141 -187l-151 79l42 76c39 74 59 147 62 218h-228c-18 16 -27 67 -28 153v81c-2 98 -61 148 -177 150h-266z" />
    <glyph glyph-name="uni0508" unicode="&#x508;" horiz-adv-x="1976" 
d="M1008 1210h-359l-25 -508c-9 -172 -31 -308 -64 -408c-34 -100 -83 -174 -146 -220c-64 -48 -151 -72 -262 -74h-88v241l50 5c75 10 128 53 160 129s53 208 62 396l26 685h946v-1075c0 -47 10 -85 32 -115c20 -28 49 -43 84 -43c61 0 109 27 144 79c35 54 54 129 57 227
c3 125 -18 259 -61 403h295c17 -65 33 -132 47 -199c15 -67 21 -135 20 -204c-1 -111 -23 -208 -66 -291c-42 -83 -101 -146 -178 -192c-76 -44 -162 -67 -258 -67c-137 0 -240 33 -310 101c-71 66 -106 166 -106 298v832z" />
    <glyph glyph-name="uni0509" unicode="&#x509;" horiz-adv-x="1735" 
d="M768 845h-219l-18 -331c-11 -178 -46 -308 -105 -389s-146 -123 -262 -125h-98l-3 235l36 3c52 4 90 35 114 92s39 155 45 293l20 459h779v-705c0 -49 12 -88 37 -118s58 -45 99 -45c52 1 92 25 120 74s43 115 44 200c3 121 -17 248 -60 381h282l23 -83
c32 -118 47 -217 45 -298c-1 -103 -21 -193 -59 -269s-92 -135 -160 -177c-70 -42 -148 -63 -235 -63c-140 0 -246 33 -317 100s-107 164 -108 292v474z" />
    <glyph glyph-name="uni050A" unicode="&#x50a;" horiz-adv-x="2036" 
d="M1310 1456v-1075c0 -49 10 -88 32 -116c20 -28 48 -42 82 -42c65 1 114 29 148 83c34 55 52 129 55 223c3 125 -18 259 -61 403h294c18 -65 34 -132 48 -199c15 -67 21 -135 20 -204c-1 -111 -23 -208 -66 -291s-102 -146 -178 -192c-77 -44 -163 -67 -260 -67
c-261 -5 -400 128 -415 400v216h-579v-595h-301v1456h301v-619h579v619h301z" />
    <glyph glyph-name="uni050B" unicode="&#x50b;" horiz-adv-x="1690" 
d="M753 426h-370v-426h-290v1082h290v-421h370v421h289v-705c0 -50 12 -90 37 -119s58 -44 99 -44c52 1 92 26 120 74c28 49 43 115 45 200c3 117 -17 244 -60 381h281l23 -83c32 -118 47 -217 45 -298c-1 -103 -21 -193 -59 -269s-91 -135 -161 -177
c-68 -42 -147 -63 -234 -63c-133 -3 -236 29 -306 93c-72 66 -111 166 -119 303v51z" />
    <glyph glyph-name="uni050C" unicode="&#x50c;" horiz-adv-x="1297" 
d="M700 -21c-120 0 -228 26 -324 79c-96 52 -171 125 -224 218c-54 94 -81 199 -82 316v267c0 117 26 222 80 317c52 95 127 168 224 222c97 52 205 79 326 79c149 0 268 -30 359 -89l-62 -225c-91 45 -190 68 -297 68c-97 0 -176 -35 -237 -105c-61 -69 -92 -160 -92 -272
v-257c0 -109 31 -198 91 -269c62 -70 141 -105 238 -105c75 1 133 21 172 59c40 39 61 92 63 160c2 97 -15 212 -50 344h293l39 -168c13 -59 19 -117 18 -176c-3 -143 -53 -256 -151 -338c-97 -84 -225 -125 -384 -125z" />
    <glyph glyph-name="uni050D" unicode="&#x50d;" horiz-adv-x="1084" 
d="M611 214c45 1 78 11 97 30c19 18 30 47 31 86c0 75 -6 144 -19 207h282c19 -88 28 -157 27 -207c-3 -112 -41 -198 -116 -260c-75 -60 -175 -91 -302 -91c-160 0 -290 51 -391 152c-100 101 -150 235 -150 401v30c0 101 22 193 65 276s105 147 184 194s170 70 272 70
c124 0 218 -22 282 -66l-46 -228c-66 39 -145 58 -236 58c-70 0 -126 -28 -168 -86c-42 -56 -63 -132 -63 -226v-34c0 -90 23 -164 68 -220c45 -58 106 -86 183 -86z" />
    <glyph glyph-name="uni050E" unicode="&#x50e;" horiz-adv-x="1444" 
d="M461 1210h-430v246h1152v-246h-422v-831c0 -48 11 -86 31 -114c22 -28 49 -42 84 -42c65 1 114 29 148 83c34 55 52 129 54 223c3 122 -17 256 -60 403h293c19 -68 35 -135 49 -202c13 -66 19 -133 18 -201c-1 -111 -23 -209 -66 -291c-42 -84 -101 -147 -178 -192
c-76 -45 -162 -67 -258 -67c-131 -3 -232 29 -301 96s-107 168 -114 304v831z" />
    <glyph glyph-name="uni050F" unicode="&#x50f;" horiz-adv-x="1305" 
d="M362 848h-296v234h907v-234h-322v-473c0 -49 12 -88 37 -117s57 -44 98 -44c52 1 92 20 120 57c29 37 44 88 46 154c3 93 -17 190 -60 289h282c29 -77 47 -135 56 -176s13 -78 12 -113c-3 -136 -46 -244 -130 -325c-83 -81 -192 -121 -326 -121c-134 -3 -236 29 -306 94
c-71 65 -110 166 -118 302v473z" />
    <glyph glyph-name="uni0510" unicode="&#x510;" horiz-adv-x="1342" 
d="M406 412c0 -58 28 -104 84 -140c55 -34 127 -52 216 -52c75 0 139 17 190 52s77 79 77 132h300c0 -85 -24 -159 -71 -224c-48 -65 -116 -114 -205 -149s-186 -52 -291 -52c-182 0 -328 39 -436 116c-110 77 -164 182 -164 313c0 85 23 156 68 212c45 58 111 100 197 128
c-76 32 -135 76 -179 131c-42 55 -64 116 -64 182c0 132 52 234 154 307c104 73 245 109 424 109c102 0 195 -17 278 -52s149 -84 197 -147c48 -64 72 -136 72 -216h-301c0 51 -23 92 -70 124c-46 32 -105 48 -176 48c-85 0 -153 -16 -202 -48c-50 -33 -75 -76 -75 -131
c0 -130 88 -195 264 -195h196v-235h-199c-93 0 -163 -17 -212 -49c-48 -34 -72 -88 -72 -164z" />
    <glyph glyph-name="uni0512" unicode="&#x512;" horiz-adv-x="1665" 
d="M1314 1456v-1456h-301v1213h-388l-24 -514c-10 -173 -32 -310 -66 -409c-34 -100 -84 -173 -149 -220c-65 -46 -155 -69 -268 -70h-78v241l50 5c75 10 129 54 162 130c32 78 52 215 61 412l25 668h976zM1599 258v-298c-1 -127 -35 -224 -101 -294
c-67 -68 -160 -103 -279 -103c-51 0 -99 6 -142 17l14 231c29 -8 61 -12 98 -12c80 0 120 57 120 172v287h290z" />
    <glyph glyph-name="uni0513" unicode="&#x513;" horiz-adv-x="1401" 
d="M1052 1082v-1082h-289v848h-255l-18 -334c-11 -178 -46 -308 -105 -389s-146 -123 -262 -125h-98l-3 235l36 3c52 4 90 35 114 92s39 155 45 293l20 459h815zM1342 258v-298c-1 -127 -35 -224 -102 -294c-66 -68 -159 -103 -278 -103c-51 0 -99 6 -142 17l14 231
c29 -8 61 -12 98 -12c80 0 120 57 120 172v287h290z" />
    <glyph glyph-name="glyph369" horiz-adv-x="799" 
d="M393 1179l111 316h211v-21l-230 -319h-92v24zM91 1495h173v-94c1 -83 26 -143 77 -180l-83 -86c-49 23 -90 58 -120 103c-32 46 -47 100 -47 162v95z" />
    <glyph glyph-name="uni2000" unicode="&#x2000;" horiz-adv-x="1044" 
 />
    <glyph glyph-name="uni2001" unicode="&#x2001;" horiz-adv-x="2089" 
 />
    <glyph glyph-name="uni2002" unicode="&#x2002;" horiz-adv-x="1044" 
 />
    <glyph glyph-name="uni2003" unicode="&#x2003;" horiz-adv-x="2089" 
 />
    <glyph glyph-name="uni2004" unicode="&#x2004;" horiz-adv-x="697" 
 />
    <glyph glyph-name="uni2005" unicode="&#x2005;" horiz-adv-x="522" 
 />
    <glyph glyph-name="uni2006" unicode="&#x2006;" horiz-adv-x="348" 
 />
    <glyph glyph-name="uni2007" unicode="&#x2007;" horiz-adv-x="1151" 
 />
    <glyph glyph-name="uni2008" unicode="&#x2008;" horiz-adv-x="560" 
 />
    <glyph glyph-name="uni2009" unicode="&#x2009;" horiz-adv-x="418" 
 />
    <glyph glyph-name="uni2009.locl" horiz-adv-x="256" 
 />
    <glyph glyph-name="uni200A" unicode="&#x200a;" horiz-adv-x="209" 
 />
    <glyph glyph-name="uni200B" unicode="&#x200b;" horiz-adv-x="0" 
 />
    <glyph glyph-name="uni2010" unicode="&#x2010;" horiz-adv-x="795" 
d="M673 507h-563v233h563v-233z" />
    <glyph glyph-name="uni2011" unicode="&#x2011;" horiz-adv-x="795" 
d="M673 507h-563v233h563v-233z" />
    <glyph glyph-name="endash" unicode="&#x2013;" horiz-adv-x="1294" 
d="M1188 596h-1036v236h1036v-236z" />
    <glyph glyph-name="emdash" unicode="&#x2014;" horiz-adv-x="1563" 
d="M1490 596h-1381v236h1381v-236z" />
    <glyph glyph-name="underscoredbl" unicode="&#x2017;" horiz-adv-x="913" 
d="M912 -416h-911v153h911v-153zM912 -153h-911v153h911v-153z" />
    <glyph glyph-name="quoteleft" unicode="&#x2018;" horiz-adv-x="479" 
d="M286 1570l136 -79c-57 -91 -87 -183 -89 -276v-167h-229v150c0 63 18 130 52 200c36 72 79 129 130 172z" />
    <glyph glyph-name="quoteright" unicode="&#x2019;" horiz-adv-x="470" 
d="M194 1009l-136 79c57 90 87 183 89 279v169h230v-155c0 -60 -17 -125 -50 -195s-78 -129 -133 -177z" />
    <glyph glyph-name="quotesinglbase" unicode="&#x201a;" horiz-adv-x="508" 
d="M202 -305l-136 79c52 84 79 175 81 274v181h238l-1 -166c-1 -59 -18 -123 -50 -192c-34 -69 -77 -127 -132 -176z" />
    <glyph glyph-name="quotereversed" unicode="&#x201b;" horiz-adv-x="428" 
d="M301 1536v-163c1 -47 7 -93 19 -135c13 -44 36 -93 70 -150l-136 -79c-55 47 -99 106 -132 176c-34 70 -51 136 -51 197v154h230z" />
    <glyph glyph-name="quotedblleft" unicode="&#x201c;" horiz-adv-x="831" 
d="M294 1570l136 -79c-57 -91 -87 -183 -89 -276v-167h-229v150c0 63 18 130 52 200c36 72 79 129 130 172zM637 1570l136 -79c-57 -91 -87 -183 -89 -276v-167h-229v150c0 63 17 130 53 200c34 72 78 129 129 172z" />
    <glyph glyph-name="quotedblright" unicode="&#x201d;" horiz-adv-x="837" 
d="M208 1009l-136 79c57 90 87 183 89 279v169h230v-155c0 -60 -17 -125 -50 -195s-78 -129 -133 -177zM555 1009l-136 79c57 90 87 183 89 279v169h230v-155c0 -60 -17 -125 -50 -195s-78 -129 -133 -177z" />
    <glyph glyph-name="quotedblbase" unicode="&#x201e;" horiz-adv-x="825" 
d="M209 -325l-143 79c52 89 79 187 81 293v216h238l-1 -199c-1 -65 -17 -134 -48 -206c-31 -74 -74 -134 -127 -183zM545 -325l-143 79c57 99 87 197 89 294v215h238l-1 -203c-1 -64 -19 -132 -52 -205c-34 -73 -78 -133 -131 -180z" />
    <glyph glyph-name="dagger" unicode="&#x2020;" horiz-adv-x="1102" 
d="M1047 841h-353v-841h-289v841h-348v241h348v374h289v-374h353v-241z" />
    <glyph glyph-name="daggerdbl" unicode="&#x2021;" horiz-adv-x="1185" 
d="M1087 0h-353v-416h-290v416h-346v233h346v615h-346v234h346v374h290v-374h353v-234h-353v-615h353v-233z" />
    <glyph glyph-name="bullet" unicode="&#x2022;" horiz-adv-x="736" 
d="M135 766c0 69 22 125 66 167s101 63 170 63c72 0 129 -21 173 -62c42 -41 65 -96 66 -163v-43c0 -69 -22 -124 -66 -166c-43 -41 -100 -62 -171 -62c-70 0 -127 21 -171 62c-45 41 -67 98 -67 169v35z" />
    <glyph glyph-name="twodotenleader" unicode="&#x2025;" horiz-adv-x="1068" 
d="M133 142c0 46 15 83 47 112c30 29 69 43 116 43s86 -14 118 -43c30 -29 46 -66 46 -112c0 -45 -15 -82 -46 -110c-31 -29 -70 -43 -118 -43c-47 0 -86 14 -117 43c-31 28 -46 65 -46 110zM606 142c0 46 16 83 46 112c32 29 70 43 117 43s87 -14 117 -43
c32 -29 47 -66 47 -112c0 -45 -15 -82 -46 -110c-31 -29 -70 -43 -118 -43c-47 0 -86 14 -117 43c-31 28 -46 65 -46 110z" />
    <glyph glyph-name="ellipsis" unicode="&#x2026;" horiz-adv-x="1515" 
d="M133 142c0 46 15 83 47 112c30 29 69 43 116 43s86 -14 118 -43c30 -29 46 -66 46 -112c0 -45 -15 -82 -46 -110c-31 -29 -70 -43 -118 -43c-47 0 -86 14 -117 43c-31 28 -46 65 -46 110zM606 142c0 46 16 83 46 112c32 29 70 43 117 43s87 -14 117 -43
c32 -29 47 -66 47 -112c0 -45 -15 -82 -46 -110c-31 -29 -70 -43 -118 -43c-47 0 -86 14 -117 43c-31 28 -46 65 -46 110zM1070 142c0 46 16 83 46 112c32 29 70 43 117 43s87 -14 117 -43c32 -29 47 -66 47 -112c0 -45 -15 -82 -46 -110c-31 -29 -70 -43 -118 -43
c-47 0 -86 14 -117 43c-31 28 -46 65 -46 110z" />
    <glyph glyph-name="uni2027" unicode="&#x2027;" horiz-adv-x="527" 
d="M101 625c0 44 15 80 43 107c30 28 69 42 119 42s89 -14 119 -42c28 -27 43 -63 43 -107s-15 -80 -43 -107c-30 -28 -69 -42 -119 -42s-89 14 -119 42c-28 27 -43 63 -43 107z" />
    <glyph glyph-name="perthousand" unicode="&#x2030;" horiz-adv-x="1965" 
d="M812 357c0 86 29 157 88 215c59 56 135 85 228 85c98 0 174 -35 228 -105c54 70 130 105 227 105c92 0 168 -28 227 -83c60 -56 90 -131 90 -224v-71c0 -85 -29 -157 -86 -213c-58 -58 -134 -86 -229 -86c-99 0 -175 35 -229 105c-54 -70 -129 -105 -226 -105
c-95 0 -171 28 -230 86c-59 56 -88 129 -88 217v74zM87 1175c0 87 28 159 84 216s128 85 217 85c94 0 170 -28 229 -84c59 -57 88 -131 88 -223v-70c0 -87 -29 -158 -88 -215c-59 -56 -134 -84 -227 -84c-89 0 -161 28 -218 84c-57 57 -85 131 -85 222v69zM470 109l-141 76
l711 1138l141 -76zM1005 279c0 -38 12 -70 36 -95s54 -38 89 -38c81 0 122 45 122 135v76c0 40 -11 72 -34 97c-23 24 -53 36 -90 36s-66 -12 -89 -36c-23 -25 -34 -58 -34 -100v-75zM1460 279c0 -36 12 -67 35 -93c23 -27 53 -40 90 -40c81 0 122 45 122 135v76
c0 40 -11 72 -34 97c-23 24 -53 36 -90 36s-66 -12 -89 -36c-23 -25 -34 -58 -34 -100v-75zM265 1099c0 -39 11 -71 33 -96c23 -25 53 -37 92 -37c37 0 67 12 89 37s33 58 33 99v73c0 40 -11 72 -34 97s-53 37 -90 37c-38 0 -68 -12 -90 -37s-33 -58 -33 -101v-72z" />
    <glyph glyph-name="guilsinglleft" unicode="&#x2039;" horiz-adv-x="638" 
d="M334 524l240 -399h-186l-280 390v19l280 390h186z" />
    <glyph glyph-name="guilsinglright" unicode="&#x203a;" horiz-adv-x="618" 
d="M267 923l280 -390v-19l-280 -390h-187l240 399l-240 400h187z" />
    <glyph glyph-name="fraction" unicode="&#x2044;" horiz-adv-x="913" 
d="M171 109l-141 76l711 1138l141 -76z" />
    <glyph glyph-name="uni2074" unicode="&#x2074;" horiz-adv-x="763" 
d="M616 993h88v-167h-88v-159h-205v159h-346l-12 135l357 495h206v-463zM249 993h162v212l-14 -22z" />
    <glyph glyph-name="uni207F" unicode="&#x207f;" horiz-adv-x="856" 
d="M255 1454l32 -123c50 90 124 135 222 135c173 0 261 -99 264 -296v-517h-212v456c-3 116 -45 174 -128 174c-64 0 -108 -26 -133 -79v-551h-213v801h168z" />
    <glyph glyph-name="lira" unicode="&#x20a4;" horiz-adv-x="1217" 
d="M841 468h-272l1 -31c0 -82 -21 -147 -62 -196h653v-241h-1059v241h92c48 12 72 72 72 179l-2 48h-162v159h157l-4 110h-153v159h148l-4 143c0 135 41 241 124 319c82 78 192 117 330 117c141 0 252 -37 333 -113c81 -74 121 -176 121 -304h-287c0 57 -15 100 -43 130
c-30 30 -71 45 -125 45c-45 0 -81 -16 -110 -49s-43 -81 -43 -145l5 -143h290v-159h-283l4 -110h279v-159z" />
    <glyph glyph-name="uni20A6" unicode="&#x20a6;" horiz-adv-x="1667" 
d="M1424 987h205v-160h-205v-162h205v-160h-205v-505h-301l-308 505h-275v-505h-301v505h-202v160h202v162h-202v160h202v469h301l285 -469h299v469h300v-469zM1021 665h103v162h-201zM540 665h178l-99 162h-79v-162zM1118 505l6 -9v9h-6z" />
    <glyph glyph-name="peseta" unicode="&#x20a7;" horiz-adv-x="1761" 
d="M1638 870h-184v-540c0 -39 8 -68 22 -86c16 -17 45 -26 89 -26c33 0 61 2 84 7v-219c-57 -17 -115 -26 -174 -26c-203 0 -306 102 -310 307v583h-101c-26 -113 -83 -200 -172 -262c-89 -60 -201 -91 -338 -92h-109v-516h-304v1456h408c145 0 262 -32 353 -98
c91 -64 146 -157 167 -276h96v266h289v-266h184v-212zM445 767h104c72 0 127 19 166 59c39 38 58 94 58 165c0 69 -19 121 -59 158c-38 37 -93 55 -163 55h-106v-437z" />
    <glyph glyph-name="uni20A8" unicode="&#x20a8;" horiz-adv-x="2222" 
d="M669 533h-239v-533h-300v1456h541c172 0 305 -38 398 -115s140 -185 140 -325c0 -99 -21 -182 -65 -248c-42 -67 -108 -120 -195 -159l315 -595v-14h-322zM430 776h242c75 0 134 19 175 58c41 38 62 91 62 158c0 69 -19 123 -59 162c-38 39 -98 59 -179 59h-241v-437z
M1865 299c0 35 -17 63 -53 83c-34 21 -91 39 -168 55c-257 54 -386 163 -386 328c0 96 40 176 120 241c79 64 183 96 312 96c137 0 247 -32 330 -97c82 -65 123 -149 123 -252h-289c0 41 -13 75 -40 103c-27 26 -68 40 -125 40c-49 0 -86 -11 -113 -33s-40 -50 -40 -84
c0 -32 15 -58 46 -77c30 -20 81 -37 153 -52c72 -14 133 -30 182 -48c153 -56 229 -153 229 -291c0 -99 -42 -179 -127 -239c-85 -62 -194 -92 -328 -92c-91 0 -171 16 -241 48c-71 33 -126 77 -166 134c-40 56 -60 117 -60 182h274c3 -51 22 -91 57 -118s83 -41 142 -41
c55 0 97 11 125 31c29 22 43 49 43 83z" />
    <glyph glyph-name="uni20A9" unicode="&#x20a9;" horiz-adv-x="1653" 
d="M996 1158h195l42 298h299l-58 -298h142v-160h-174l-25 -132h199v-160h-230l-137 -706h-304l-110 706h-26l-108 -706h-305l-138 706h-221v160h190l-25 132h-165v160h134l-58 298h299l42 -298h197l43 298h259zM495 866h114l19 132h-152zM1039 866h112l18 132h-149zM552 465
l34 241h-68zM1096 473l33 233h-67z" />
    <glyph glyph-name="uni20AA" unicode="&#x20aa;" horiz-adv-x="1778" 
d="M858 1082c132 0 228 -30 287 -92c59 -60 90 -161 92 -301v-325h-290v310c0 60 -12 104 -37 132c-24 27 -70 41 -138 42h-372v-848h-289v1082h747zM540 0v719h289v-486h364c71 0 119 13 144 39s39 68 40 126v684h290v-675c-1 -122 -54 -220 -161 -295s-247 -112 -422 -112
h-544z" />
    <glyph glyph-name="Euro" unicode="&#x20ac;" horiz-adv-x="1175" 
d="M894 516h-335c3 -98 29 -172 79 -221c48 -49 125 -74 228 -74c70 0 133 10 190 31l36 -242c-83 -19 -168 -29 -256 -29c-175 0 -314 47 -416 141c-103 95 -157 226 -162 394h-169v152h169v124h-169v152h171c11 168 70 298 176 392c105 92 245 139 420 139
c70 0 149 -10 236 -31l-36 -243c-63 21 -124 32 -185 32c-189 0 -292 -96 -310 -289h333v-152h-335v-124h335v-152z" />
    <glyph glyph-name="uni20B1" unicode="&#x20b1;" horiz-adv-x="1533" 
d="M507 513v-513h-301v785h-169v160h169v62h-169v160h169v289h569c123 0 229 -25 318 -76s153 -122 192 -213h211v-160h-175l1 -33l-1 -29h175v-160h-210c-37 -86 -98 -153 -186 -201c-86 -47 -195 -71 -325 -71h-268zM1018 990l-2 17h-509v-62h510zM507 1167h424
c-41 30 -91 45 -150 46h-274v-46zM916 785h-409v-29h268c57 0 104 10 141 29z" />
    <glyph glyph-name="uni20B9" unicode="&#x20b9;" horiz-adv-x="1080" 
d="M988 1257h-209c31 -48 51 -104 60 -167h201l-53 -198h-149c-15 -99 -55 -178 -119 -237s-156 -100 -276 -123l437 -518v-14h-331l-484 567l-1 176h237c123 0 201 50 232 149h-493l52 198h435c-33 81 -104 122 -215 123h-272l59 243h941z" />
    <glyph glyph-name="uni20BA" unicode="&#x20ba;" horiz-adv-x="1216" 
d="M1140 763v-71c0 -141 -26 -266 -77 -374s-125 -191 -219 -250c-96 -59 -204 -88 -326 -88c-96 0 -194 7 -294 20v625l-187 -61v213l187 61v120l-187 -61v213l187 61v285h299v-187l196 65v-213l-196 -65v-120l196 65v-212l-196 -65v-498c102 1 180 41 233 118
c54 77 81 192 82 344v75h302z" />
    <glyph glyph-name="uni20BC" unicode="&#x20bc;" horiz-adv-x="1397" 
d="M843 865c149 -33 267 -111 353 -234c88 -123 132 -274 133 -455v-176h-289v175c-1 113 -18 205 -53 279c-35 72 -83 125 -144 157v-611h-289v612c-61 -32 -110 -85 -144 -159c-36 -74 -53 -169 -53 -284v-169h-289v168c0 121 20 230 58 327c40 97 96 178 170 242
c73 64 159 107 258 129v216h289v-217z" />
    <glyph glyph-name="uni20BD" unicode="&#x20bd;" horiz-adv-x="1444" 
d="M872 194h-318v-194h-300v194h-203v243h203v76h-203v243h203v700h566c109 0 205 -20 288 -59s147 -95 192 -169c46 -72 69 -156 69 -249c0 -144 -49 -258 -147 -341c-97 -83 -233 -125 -407 -125h-261v-76h318v-243zM554 756h259c168 0 252 74 252 221
c0 70 -21 127 -64 169c-43 44 -102 65 -177 66h-270v-456z" />
    <glyph glyph-name="uni2105" unicode="&#x2105;" horiz-adv-x="1504" 
d="M692 1065c0 -77 -26 -140 -80 -190c-52 -50 -124 -75 -214 -75c-89 0 -161 28 -216 83s-82 129 -82 222v71c0 89 27 162 81 218c54 55 126 83 215 83s161 -25 215 -75c54 -51 81 -115 81 -193h-192c0 29 -10 53 -30 73c-19 18 -44 28 -74 28c-31 0 -56 -12 -75 -36
c-19 -25 -28 -58 -28 -100v-75c0 -38 9 -70 27 -95c19 -25 45 -38 78 -38c29 0 54 9 73 28s29 42 29 71h192zM791 357c0 90 29 163 88 217c59 56 135 83 228 83c95 0 171 -27 229 -81c59 -55 88 -130 88 -225v-72c0 -89 -29 -161 -86 -217c-57 -54 -134 -82 -229 -82
c-96 0 -173 28 -231 83s-87 129 -87 220v74zM983 279c0 -37 12 -68 36 -94s54 -39 90 -39c81 0 122 45 122 135v76c0 40 -11 72 -34 97c-23 24 -53 36 -90 36s-67 -12 -90 -36c-23 -25 -34 -58 -34 -100v-75zM455 109l-141 76l711 1138l141 -76z" />
    <glyph glyph-name="uni2113" unicode="&#x2113;" horiz-adv-x="1011" 
d="M744 -21c-166 0 -293 39 -382 117c-89 77 -133 189 -134 334v17c-59 -10 -121 -15 -186 -15v187c65 0 127 6 186 17v422c3 137 37 245 102 323c66 78 157 117 272 117c101 0 183 -32 246 -96c62 -63 93 -148 93 -254v-39c0 -103 -37 -206 -112 -310s-174 -188 -297 -253
v-55c0 -84 17 -145 50 -183c34 -38 88 -57 162 -57v-272zM532 784c99 91 149 203 149 336v31c0 32 -7 57 -21 76s-31 28 -51 28c-51 0 -77 -58 -77 -175v-296z" />
    <glyph glyph-name="uni2116" unicode="&#x2116;" horiz-adv-x="2077" 
d="M1923 417h-597v147h597v-147zM1281 1112c0 107 32 193 96 260s147 100 250 100s186 -33 251 -100c64 -66 96 -155 96 -266v-62c0 -105 -32 -191 -94 -258c-64 -67 -147 -100 -251 -100c-105 0 -189 34 -253 100c-63 68 -95 155 -95 264v62zM1456 1044
c0 -66 16 -118 46 -156c32 -37 74 -56 127 -56s94 19 125 57c30 38 45 91 45 160v63c0 65 -16 117 -47 155s-73 57 -125 57c-51 0 -93 -19 -124 -57s-47 -91 -47 -159v-64zM1159 0h-318l-422 947v-947h-291v1456h318l423 -949v949h290v-1456z" />
    <glyph glyph-name="trademark" unicode="&#x2122;" horiz-adv-x="1293" 
d="M1016 1266l-111 -352h-72l-111 353v-353h-128v542h158l117 -368l126 368h149v-542h-128v352zM523 1348h-129v-431h-142v431h-136v108h407v-108z" />
    <glyph glyph-name="estimated" unicode="&#x212e;" horiz-adv-x="1296" 
d="M1042 94c-122 -76 -245 -114 -370 -114c-97 0 -186 26 -267 78c-81 53 -145 122 -189 208c-46 85 -68 177 -68 275c0 95 24 186 72 273c48 86 113 156 196 208c83 54 168 80 256 80c89 0 171 -23 246 -70c76 -46 136 -110 180 -190c44 -82 67 -170 69 -266v-62h-768v-328
c79 -73 170 -110 273 -110c131 0 253 41 368 122zM672 1008c-101 0 -192 -41 -273 -122v-277h540v286c-77 75 -166 113 -267 113z" />
    <glyph glyph-name="oneeighth" unicode="&#x215b;" horiz-adv-x="1604" 
d="M490 646h-204v548l-189 -41v158l374 121h19v-786zM445 109l-141 76l711 1138l141 -76zM1485 576c0 -76 -37 -133 -111 -170c86 -40 129 -103 129 -188c0 -72 -27 -128 -81 -168c-55 -41 -130 -61 -227 -61c-96 0 -172 20 -227 61c-56 40 -84 96 -84 168
c0 86 44 149 131 188c-75 39 -113 95 -113 170c0 69 26 124 79 164s123 60 212 60s159 -20 213 -59c52 -39 79 -94 79 -165zM1299 238c0 54 -35 81 -106 81c-69 0 -103 -27 -103 -81c0 -27 10 -48 28 -62c20 -16 45 -23 77 -23c31 0 57 7 75 23c20 14 29 35 29 62zM1280 562
c0 49 -29 73 -87 73c-57 0 -85 -24 -85 -73c0 -51 29 -77 87 -77c57 0 85 26 85 77z" />
    <glyph glyph-name="threeeighths" unicode="&#x215c;" horiz-adv-x="1764" 
d="M297 1130h82c79 0 119 29 119 88c0 23 -10 42 -28 56c-20 14 -45 21 -78 21c-28 0 -52 -5 -72 -15c-19 -11 -29 -26 -29 -45h-205c0 68 28 123 84 163c57 42 129 62 216 62c97 0 174 -20 230 -60c58 -39 86 -95 86 -166c0 -79 -45 -136 -135 -169
c100 -27 150 -89 150 -184c0 -70 -31 -126 -91 -169c-62 -42 -141 -63 -240 -63c-95 0 -171 22 -228 67c-57 44 -86 104 -86 180h206c0 -23 11 -42 34 -58c23 -17 51 -25 86 -25c40 0 69 9 86 27c18 17 27 38 27 61c0 61 -41 92 -122 93h-92v136zM598 109l-141 76l711 1138
l141 -76zM1641 576c0 -76 -37 -133 -111 -170c86 -40 129 -103 129 -188c0 -72 -27 -128 -81 -168c-55 -41 -130 -61 -227 -61c-96 0 -172 20 -227 61c-56 40 -84 96 -84 168c0 86 44 149 131 188c-75 39 -113 95 -113 170c0 69 26 124 79 164s123 60 212 60
s159 -20 213 -59c52 -39 79 -94 79 -165zM1455 238c0 54 -35 81 -106 81c-69 0 -103 -27 -103 -81c0 -27 10 -48 28 -62c20 -16 45 -23 77 -23c31 0 57 7 75 23c20 14 29 35 29 62zM1436 562c0 49 -29 73 -87 73c-57 0 -85 -24 -85 -73c0 -51 29 -77 87 -77
c57 0 85 26 85 77z" />
    <glyph glyph-name="fiveeighths" unicode="&#x215d;" horiz-adv-x="1745" 
d="M105 1044l54 408h503v-162h-336l-21 -135c42 18 86 27 132 27c88 0 155 -22 201 -66s69 -107 69 -188c0 -82 -28 -148 -85 -200c-57 -50 -131 -76 -224 -76c-86 0 -159 22 -219 66c-60 45 -91 101 -92 168h206c3 -47 38 -70 105 -70c69 0 104 38 104 113
c0 34 -10 61 -30 81c-19 21 -49 31 -90 31c-33 0 -58 -5 -76 -13c-16 -10 -29 -17 -38 -24zM578 109l-141 76l711 1138l141 -76zM1622 576c0 -76 -37 -133 -111 -170c86 -40 129 -103 129 -188c0 -72 -27 -128 -82 -168c-54 -41 -129 -61 -226 -61c-96 0 -172 20 -228 61
c-55 40 -83 96 -83 168c0 86 44 149 131 188c-75 39 -113 95 -113 170c0 69 26 124 79 164s123 60 212 60s160 -20 212 -59c54 -39 80 -94 80 -165zM1436 238c0 54 -35 81 -106 81c-69 0 -103 -27 -103 -81c0 -27 9 -48 29 -62c18 -16 44 -23 76 -23c31 0 56 7 76 23
c18 14 28 35 28 62zM1417 562c0 49 -29 73 -87 73c-57 0 -85 -24 -85 -73c0 -51 29 -77 87 -77c57 0 85 26 85 77z" />
    <glyph glyph-name="seveneighths" unicode="&#x215e;" horiz-adv-x="1760" 
d="M730 1328l-331 -674h-216l332 623h-424v166h639v-115zM499 109l-141 76l711 1138l141 -76zM1568 576c0 -76 -37 -133 -111 -170c86 -40 129 -103 129 -188c0 -72 -27 -128 -82 -168c-54 -41 -129 -61 -226 -61c-96 0 -172 20 -228 61c-55 40 -83 96 -83 168
c0 86 44 149 131 188c-75 39 -113 95 -113 170c0 69 26 124 79 164s123 60 212 60s160 -20 212 -59c54 -39 80 -94 80 -165zM1382 238c0 54 -35 81 -106 81c-69 0 -103 -27 -103 -81c0 -27 9 -48 29 -62c18 -16 44 -23 76 -23c31 0 56 7 76 23c18 14 28 35 28 62zM1363 562
c0 49 -29 73 -87 73c-57 0 -85 -24 -85 -73c0 -51 29 -77 87 -77c57 0 85 26 85 77z" />
    <glyph glyph-name="partialdiff" unicode="&#x2202;" horiz-adv-x="1172" 
d="M565 1036c110 0 203 -38 280 -115c-21 120 -61 214 -119 282c-60 68 -131 102 -215 102c-69 0 -128 -9 -177 -26l-66 -25l-45 207l58 26c77 33 161 50 254 50c181 0 321 -71 421 -213c100 -143 151 -346 153 -611v-62c0 -131 -21 -248 -63 -350
c-41 -102 -101 -181 -178 -237c-78 -57 -168 -85 -270 -85c-155 0 -278 48 -370 145c-93 96 -139 227 -139 394v13c0 152 43 274 129 367c85 92 201 138 347 138zM600 803c-71 0 -126 -25 -164 -74s-57 -127 -57 -234c0 -91 19 -161 56 -210s92 -73 163 -73
c70 0 124 29 164 87c38 58 58 145 58 260v110c-21 43 -50 76 -88 99s-82 35 -132 35z" />
    <glyph glyph-name="product" unicode="&#x220f;" horiz-adv-x="1419" 
d="M1263 -253h-290v1481h-519v-1481h-290v1709h1099v-1709z" />
    <glyph glyph-name="summation" unicode="&#x2211;" horiz-adv-x="1284" 
d="M931 582l-477 -618h782v-233h-1179v151l570 717l-570 706v151h1144v-234h-744l474 -607v-33z" />
    <glyph glyph-name="minus" unicode="&#x2212;" horiz-adv-x="1138" 
d="M1010 596h-863v236h863v-236z" />
    <glyph glyph-name="radical" unicode="&#x221a;" horiz-adv-x="1157" 
d="M582 294l322 1162h231l-422 -1456h-246l-186 523h-226v236h388z" />
    <glyph glyph-name="infinity" unicode="&#x221e;" horiz-adv-x="2143" 
d="M2045 530c0 -105 -22 -199 -65 -284c-44 -84 -105 -149 -184 -196c-78 -47 -167 -70 -266 -70c-193 0 -346 104 -461 312c-115 -208 -268 -312 -461 -312c-153 0 -276 52 -372 156c-94 103 -142 238 -142 403v11c0 103 21 196 64 282c43 84 103 151 182 198
c78 48 167 72 266 72c94 0 180 -25 260 -76c78 -50 146 -126 203 -227c57 103 125 179 203 229c79 49 165 74 260 74c150 0 273 -52 369 -155s144 -242 144 -417zM1763 550c0 93 -23 168 -68 226c-45 56 -105 85 -178 85c-93 0 -171 -50 -236 -149
c-33 -52 -56 -102 -67 -150v-29c3 -22 15 -55 35 -99c20 -43 44 -81 71 -113c28 -32 58 -57 90 -75c33 -17 68 -26 105 -26c76 0 136 29 181 86s67 139 67 244zM375 530c0 -93 22 -168 67 -224c44 -58 104 -86 181 -86c97 0 180 60 247 179c30 54 48 99 53 134v29
c-12 51 -34 101 -65 150c-32 49 -68 86 -108 112c-41 24 -84 37 -129 37c-73 0 -133 -28 -178 -85s-68 -139 -68 -246z" />
    <glyph glyph-name="integral" unicode="&#x222b;" horiz-adv-x="591" 
d="M433 -47c0 -128 -33 -225 -100 -291s-160 -99 -280 -99c-51 0 -99 6 -144 18l16 228c32 -8 60 -12 85 -12c86 0 130 48 133 144v1235c0 123 35 217 104 282c69 66 168 99 295 99c42 0 95 -7 159 -21l-24 -222c-28 7 -60 10 -97 10c-98 0 -147 -51 -147 -153v-1218z" />
    <glyph glyph-name="approxequal" unicode="&#x2248;" horiz-adv-x="1181" 
d="M101 914c32 33 70 59 114 78s88 28 132 28c59 1 116 -11 173 -36l138 -68c55 -25 111 -38 170 -38c85 0 161 42 228 126v-237c-68 -71 -142 -106 -221 -106c-59 0 -115 13 -170 38l-138 68c-57 25 -114 37 -173 36c-46 0 -92 -12 -138 -35c-47 -23 -85 -54 -115 -91v237z
M101 494c68 71 147 106 238 106c60 1 119 -11 176 -37l140 -69c53 -24 108 -36 165 -36c90 0 169 42 236 126v-237c-68 -71 -144 -106 -228 -106c-59 0 -115 13 -170 38l-138 68c-57 25 -114 37 -173 36c-44 0 -88 -11 -132 -33s-82 -53 -114 -93v237z" />
    <glyph glyph-name="notequal" unicode="&#x2260;" horiz-adv-x="1172" 
d="M1030 313h-554l-116 -216l-119 62l83 154h-188v236h315l106 197h-421v236h548l115 213l119 -63l-81 -150h193v-236h-320l-107 -197h427v-236z" />
    <glyph glyph-name="lessequal" unicode="&#x2264;" horiz-adv-x="1043" 
d="M345 739l570 -181v-252l-861 329v212l861 329v-252zM924 40h-863v236h863v-236z" />
    <glyph glyph-name="greaterequal" unicode="&#x2265;" horiz-adv-x="1058" 
d="M701 748l-581 183v250l871 -329v-211l-871 -330v252zM984 40h-863v236h863v-236z" />
    <glyph glyph-name="lozenge" unicode="&#x25ca;" horiz-adv-x="1042" 
d="M399 1456h247l369 -729l-368 -727h-247l-369 727zM522 1152l-204 -425l206 -424l203 424z" />
    <glyph glyph-name="uniEE01" unicode="&#xee01;" horiz-adv-x="602" 
d="M138 328c0 46 16 83 46 112c32 29 70 43 117 43s87 -14 117 -43c32 -29 47 -66 47 -112c0 -45 -15 -82 -46 -110c-31 -29 -70 -43 -118 -43c-47 0 -86 14 -117 43c-31 28 -46 65 -46 110zM138 1147c0 46 16 83 46 112c32 29 70 43 117 43s87 -14 117 -43
c32 -29 47 -66 47 -112c0 -45 -15 -82 -46 -111c-31 -28 -70 -42 -118 -42c-47 0 -86 14 -117 42c-31 29 -46 66 -46 111z" />
    <glyph glyph-name="uniEE02" unicode="&#xee02;" horiz-adv-x="657" 
d="M253 653h-163v428h163v-428zM567 653h-163v428h163v-428z" />
    <glyph glyph-name="uniF6C3" unicode="&#xf6c3;" horiz-adv-x="470" 
d="M195 -149l-143 79c49 77 74 157 76 242v103h212v-71c0 -62 -14 -126 -42 -192c-27 -66 -62 -120 -103 -161z" />
    <glyph glyph-name="f_f.dlig" horiz-adv-x="1338" 
d="M190 0v870h-161v212h161v92c0 121 35 216 104 282c70 68 168 101 293 101c40 0 89 -7 147 -20l-3 -224c-24 6 -53 9 -88 9c-109 0 -163 -51 -163 -153v-87h215v-212h-215v-870h-290zM794 0v870h-161v212h161v92c0 121 35 216 104 282c70 68 168 101 293 101
c40 0 89 -7 147 -20l-3 -224c-24 6 -53 9 -88 9c-109 0 -163 -51 -163 -153v-87h215v-212h-215v-870h-290z" />
    <glyph glyph-name="uniFB01" unicode="&#xfb01;" horiz-adv-x="1246" 
d="M181 0v870h-161v212h161v50c1 136 43 241 125 314c83 74 199 111 349 111c90 0 199 -20 328 -59l-42 -239c-65 19 -116 32 -152 37c-36 6 -75 9 -116 9c-135 0 -202 -60 -202 -179v-44h213v-212h-213v-870h-290zM1118 0h-290v1082h290v-1082z" />
    <glyph glyph-name="uniFB02" unicode="&#xfb02;" horiz-adv-x="1255" 
d="M836 1312c-57 7 -111 10 -160 10c-131 0 -196 -56 -196 -167v-73h215v-212h-215v-870h-290v870h-161v212h161v84c1 125 41 222 118 290c77 67 187 101 328 101c101 0 264 -11 490 -32v-1525h-290v1312z" />
    <glyph glyph-name="uniFB03" unicode="&#xfb03;" horiz-adv-x="1901" 
d="M190 0v870h-161v212h161v92c0 121 35 216 104 282c70 68 168 101 293 101c40 0 89 -7 147 -20l-3 -224c-24 6 -53 9 -88 9c-109 0 -163 -51 -163 -153v-87h356v50c1 136 43 241 126 314c82 74 198 111 348 111c89 0 199 -20 329 -59l-42 -239c-65 19 -116 32 -153 37
c-36 6 -75 9 -116 9c-135 0 -202 -60 -202 -179v-44h213v-212h-213v-870h-290v870h-356v-870h-290zM1773 0h-290v1082h290v-1082z" />
    <glyph glyph-name="uniFB04" unicode="&#xfb04;" horiz-adv-x="1901" 
d="M190 0v870h-161v212h161v92c0 121 35 216 104 282c70 68 168 101 293 101c40 0 89 -7 147 -20l-3 -224c-24 6 -53 9 -88 9c-109 0 -163 -51 -163 -153v-87h356v81c1 127 40 225 118 293c79 67 188 101 329 101c96 0 259 -11 490 -32v-1525h-290v1312
c-57 7 -111 10 -161 10c-131 0 -196 -56 -196 -167v-73h215v-212h-215v-870h-290v870h-356v-870h-290z" />
    <glyph glyph-name="longs_t.dlig" horiz-adv-x="1324" 
d="M1270 870h-184v-540c0 -40 8 -69 23 -86s45 -26 88 -26c33 0 61 2 84 7v-219c-57 -17 -115 -26 -174 -26c-203 0 -306 102 -310 307v583h-159v212h159v214c-42 18 -99 27 -170 27c-99 0 -148 -51 -148 -153v-1170h-289v870h-161v212h161v100c1 119 36 211 106 276
c68 66 166 99 292 99c144 0 310 -36 498 -107v-368h184v-212z" />
    <glyph glyph-name="s_t.dlig" horiz-adv-x="1742" 
d="M1692 870h-185v-532c0 -46 9 -78 27 -94c19 -18 47 -26 84 -26c33 0 62 2 85 7v-219c-57 -17 -115 -26 -175 -26c-207 0 -310 120 -310 361v529h-155v212h155v89c0 56 -15 99 -46 131c-30 30 -72 46 -125 46c-49 0 -87 -14 -114 -40c-27 -28 -41 -64 -41 -111
c0 -39 4 -75 13 -108s18 -66 29 -99c10 -33 19 -69 28 -106c9 -38 13 -82 13 -131h-289c0 41 -13 75 -40 103c-27 26 -68 40 -125 40c-49 0 -86 -11 -113 -33s-40 -50 -40 -84c0 -32 15 -58 46 -77c30 -20 81 -37 153 -52c72 -14 133 -30 182 -48c153 -56 229 -153 229 -291
c0 -99 -42 -179 -127 -239c-85 -62 -194 -92 -328 -92c-91 0 -171 16 -241 48c-71 33 -126 77 -166 134c-40 56 -60 117 -60 182h274c3 -51 22 -91 57 -118s83 -41 142 -41c55 0 97 11 125 31c29 22 43 49 43 83c0 35 -17 63 -53 83c-34 21 -91 39 -168 55
c-257 54 -386 163 -386 328c0 96 40 176 120 241c79 64 183 96 312 96c55 0 109 -6 161 -19c-30 69 -45 129 -45 181c0 89 38 161 114 215s177 81 302 81c145 0 256 -34 335 -100c79 -68 118 -166 118 -295v-83h185v-212z" />
    <glyph glyph-name="uniFEFF" unicode="&#xfeff;" horiz-adv-x="0" 
 />
    <glyph glyph-name="uniFFFC" unicode="&#xfffc;" horiz-adv-x="2092" 
d="M821 468c0 -65 -21 -118 -65 -158c-42 -41 -97 -61 -164 -61c-68 0 -123 20 -166 60s-65 91 -66 154v117c0 63 21 116 63 157s98 62 167 62c67 0 122 -20 165 -60s65 -91 66 -154v-117zM888 252v549h188c65 0 117 -12 155 -37c38 -24 57 -62 57 -113
c0 -56 -28 -95 -84 -116c33 -9 59 -25 76 -48s26 -50 26 -80c0 -103 -69 -155 -208 -155h-210zM729 580c0 46 -12 82 -37 108s-59 39 -102 39s-76 -13 -101 -39s-37 -62 -37 -108v-112c0 -46 12 -82 37 -108s59 -39 103 -39c43 0 76 13 100 39c25 26 37 62 37 108v112z
M1683 803h92v-378c0 -52 -17 -93 -53 -125c-34 -30 -79 -46 -134 -46c-59 0 -106 14 -142 40c-37 28 -55 69 -55 124h93c0 -61 35 -91 104 -91c27 0 50 9 68 27s27 42 27 71v378zM87 -398v315h113v-202h196v-113h-309zM1716 -398v113h199v202h111v-315h-310zM87 1169v285
h309v-116h-196v-169h-113zM1716 1338v116h310v-285h-111v169h-199zM983 496v-169h126c69 0 103 28 103 83s-33 83 -98 86h-131zM1317 1338v116h278v-116h-278zM918 1338v116h277v-116h-277zM519 1338v116h276v-116h-276zM1317 -398v113h278v-113h-278zM918 -398v113h277
v-113h-277zM519 -398v113h276v-113h-276zM983 566h93c79 0 118 27 118 80c0 27 -10 46 -29 56s-49 15 -89 15h-93v-151zM200 416h-113v252h113v-252zM200 794h-113v250h113v-250zM200 41h-113v249h113v-249zM2026 416h-111v252h111v-252zM2026 794h-111v250h111v-250z
M2026 41h-111v249h111v-249z" />
    <glyph glyph-name="uniFFFD" unicode="&#xfffd;" horiz-adv-x="2101" 
d="M1048 1618l959 -975l-959 -975l-956 975zM1131 402c0 39 5 68 15 87s27 37 51 53c49 26 89 62 120 106c31 46 46 93 46 142c0 85 -28 153 -83 204c-56 50 -134 75 -233 75c-96 0 -171 -23 -224 -69c-53 -47 -81 -112 -82 -197h203c1 34 12 60 31 77s43 26 72 26
c38 0 66 -11 85 -32s28 -49 28 -84c0 -63 -31 -115 -93 -155c-61 -43 -99 -80 -115 -111c-15 -31 -23 -71 -23 -122h202zM1131 311h-202v-170h202v170zM1056 -551h4v-4h-4v4zM1054 2163h4v-4h-4v4z" />
    <glyph glyph-name="two.dnom" horiz-adv-x="762" 
d="M693 0h-620v138l287 257c37 33 64 63 80 91c17 28 25 50 25 65c0 56 -32 84 -95 84c-33 0 -60 -10 -80 -31c-19 -21 -29 -47 -29 -78h-206c0 77 29 142 85 195c58 53 131 79 221 79c99 0 175 -22 229 -64c53 -44 80 -105 80 -184c0 -47 -12 -89 -36 -128
s-72 -87 -144 -145l-148 -115h351v-164z" />
    <glyph glyph-name="one.dnom" horiz-adv-x="762" 
d="M528 0h-204v548l-189 -41v158l374 121h19v-786z" />
    <glyph glyph-name="zero.dnom" horiz-adv-x="762" 
d="M690 310c0 -103 -27 -182 -80 -238c-54 -55 -130 -83 -228 -83c-99 0 -176 28 -229 83s-81 132 -82 230v173c0 103 27 183 82 240s130 85 227 85s173 -29 228 -86s82 -137 82 -239v-165zM486 484c0 100 -35 150 -106 150c-66 0 -100 -45 -103 -135v-197
c0 -56 9 -95 27 -116c19 -22 45 -33 78 -33c67 0 102 46 104 138v193z" />
    <glyph glyph-name="nine.c2sc" horiz-adv-x="1064" 
d="M682 452c-65 -53 -139 -80 -224 -80c-123 0 -218 34 -285 102c-67 67 -101 163 -101 286c0 76 19 146 58 212c39 64 93 116 162 153s147 56 232 56c141 0 252 -42 332 -125c80 -84 120 -202 120 -354v-77c0 -213 -54 -372 -162 -479c-108 -106 -273 -160 -494 -162h-33
v230c101 0 175 8 225 24c48 15 87 40 116 75c28 35 46 81 54 139zM534 587c68 0 119 22 153 66v108c0 66 -15 114 -45 143c-29 29 -69 44 -118 44s-88 -18 -118 -54s-45 -82 -45 -137c0 -53 14 -94 43 -125c29 -30 72 -45 130 -45z" />
    <glyph glyph-name="eight.c2sc" horiz-adv-x="1064" 
d="M956 851c0 -112 -55 -196 -165 -251c60 -27 107 -64 141 -112c35 -46 52 -102 52 -167c0 -105 -40 -188 -120 -247c-81 -60 -191 -90 -332 -90c-140 0 -250 30 -332 90c-80 60 -121 142 -121 247c0 65 17 121 52 169c35 46 82 83 142 110c-111 57 -167 141 -167 251
c0 101 38 181 114 241c75 59 179 89 310 89c132 0 236 -29 312 -89c76 -58 114 -139 114 -241zM695 349c0 42 -15 74 -45 95c-31 22 -71 33 -120 33c-48 0 -87 -11 -117 -33c-30 -21 -45 -53 -45 -95c0 -41 15 -74 45 -97c30 -24 70 -36 119 -36s89 12 118 36
c30 23 45 56 45 97zM667 833c0 77 -46 115 -137 115c-43 0 -76 -10 -99 -30s-35 -48 -35 -85s12 -66 35 -89s57 -34 101 -34c45 0 78 11 101 34s34 52 34 89z" />
    <glyph glyph-name="seven.c2sc" horiz-adv-x="1064" 
d="M987 1002l-495 -1002h-305l496 931h-634v234h938v-163z" />
    <glyph glyph-name="six.c2sc" horiz-adv-x="1063" 
d="M806 1186v-237c-141 0 -245 -22 -310 -65c-66 -44 -107 -113 -122 -208c69 67 156 101 262 101c115 0 206 -35 272 -105c67 -70 100 -165 100 -285c0 -117 -42 -213 -128 -289c-84 -76 -193 -114 -324 -114c-150 0 -267 42 -351 124c-84 84 -126 201 -126 352v73
c0 207 60 367 179 481c119 115 291 172 514 172h34zM546 547c-43 0 -80 -8 -110 -25c-31 -17 -53 -35 -68 -56v-54c0 -131 60 -197 180 -197c50 0 91 17 123 50s48 75 48 124c0 53 -15 92 -46 119c-31 26 -73 39 -127 39z" />
    <glyph glyph-name="five.c2sc" horiz-adv-x="1064" 
d="M107 565l79 600h735v-231h-499l-31 -208c73 27 139 40 196 40c129 0 228 -33 297 -98c68 -66 102 -159 102 -279s-41 -217 -123 -293c-82 -74 -192 -112 -329 -112c-126 0 -233 32 -320 98c-87 64 -132 147 -135 246h289c5 -75 60 -112 166 -112c108 0 162 58 162 175
c0 53 -15 95 -46 127c-31 31 -77 47 -140 47c-61 0 -112 -14 -151 -42l-21 -15z" />
    <glyph glyph-name="four.c2sc" horiz-adv-x="1064" 
d="M873 473h138v-234h-138v-239h-289v239h-517l-16 189l533 737h289v-692zM330 473h254v330l-18 -28z" />
    <glyph glyph-name="three.c2sc" horiz-adv-x="1064" 
d="M370 691h130c60 0 104 13 132 37c29 26 43 58 43 99c0 38 -14 68 -43 89s-69 32 -120 32c-46 0 -84 -9 -113 -26c-29 -18 -44 -42 -44 -71h-289c0 99 41 178 122 239s187 91 316 91c143 0 255 -29 337 -89c82 -58 123 -140 123 -245c0 -59 -18 -109 -53 -151
c-35 -43 -84 -76 -146 -99c147 -41 220 -131 220 -271c0 -103 -44 -186 -133 -248c-89 -63 -205 -94 -348 -94c-137 0 -248 32 -332 97c-83 65 -125 152 -125 262h290c0 -37 18 -68 53 -91c35 -24 79 -36 130 -36c56 0 99 12 130 38c31 24 46 58 46 99
c0 95 -64 142 -192 143h-134v195z" />
    <glyph glyph-name="two.c2sc" horiz-adv-x="1064" 
d="M992 0h-909v195l422 384c58 51 99 97 124 139c25 41 37 75 37 100c0 39 -12 71 -38 94c-24 24 -62 36 -111 36c-53 0 -95 -16 -125 -46c-31 -32 -46 -72 -46 -122h-290c0 117 42 213 127 288s192 113 323 113c141 0 252 -32 331 -95s119 -152 119 -267
c0 -72 -21 -139 -64 -201c-42 -62 -125 -142 -248 -240l-184 -146h532v-232z" />
    <glyph glyph-name="one.c2sc" horiz-adv-x="1064" 
d="M741 0h-289v824l-303 -68v225l564 181h28v-1162z" />
    <glyph glyph-name="zero.c2sc" horiz-adv-x="1064" 
d="M984 463c0 -153 -39 -271 -118 -354s-190 -125 -334 -125c-143 0 -254 41 -333 123s-119 198 -120 348v243c0 153 39 272 119 356c78 85 189 127 332 127c142 0 253 -42 332 -125c80 -83 121 -200 122 -351v-242zM694 713c0 156 -55 234 -164 234
c-105 0 -159 -72 -162 -217v-280c0 -78 13 -136 39 -176c26 -38 68 -58 125 -58c55 0 96 18 122 56c26 36 39 94 40 171v270z" />
    <glyph glyph-name="Z.c2sc" horiz-adv-x="1073" 
d="M438 232h590v-232h-970v152l586 779h-589v234h964v-149z" />
    <glyph glyph-name="Y.c2sc" horiz-adv-x="1101" 
d="M550 670l239 495h314l-411 -759v-406h-290v418l-403 747h312z" />
    <glyph glyph-name="X.c2sc" horiz-adv-x="1124" 
d="M548 789l206 376h334l-358 -578l386 -587h-342l-222 382l-215 -382h-334l368 587l-358 578h331z" />
    <glyph glyph-name="W.c2sc" horiz-adv-x="1533" 
d="M1073 372l148 793h278l-269 -1165h-288l-178 735l-175 -735h-288l-270 1165h279l148 -797l180 797h254z" />
    <glyph glyph-name="V.c2sc" horiz-adv-x="1160" 
d="M567 320l11 -55l11 52l268 848h304l-426 -1165h-312l-424 1165h303z" />
    <glyph glyph-name="U.c2sc" horiz-adv-x="1167" 
d="M1072 1165v-754c0 -133 -43 -237 -129 -313s-206 -114 -359 -114s-273 38 -360 114s-131 180 -131 312v755h290v-769c4 -120 71 -180 201 -180c65 0 114 15 148 45c33 30 50 79 50 148v756h290z" />
    <glyph glyph-name="T.c2sc" horiz-adv-x="1105" 
d="M1071 931h-378v-931h-290v931h-371v234h1039v-234z" />
    <glyph glyph-name="S.c2sc" horiz-adv-x="1097" 
d="M747 313c0 39 -16 70 -49 93s-88 44 -167 63s-145 39 -199 59c-53 22 -97 46 -132 75s-60 62 -77 99c-17 38 -25 83 -25 135c0 100 42 182 125 247s191 97 322 97c143 0 259 -33 347 -97c89 -66 133 -154 133 -267h-289c0 43 -17 78 -52 107c-34 29 -80 43 -138 43
c-51 0 -93 -11 -125 -34s-48 -51 -48 -85s17 -62 50 -82c33 -22 89 -42 166 -61c155 -34 267 -81 333 -141c68 -60 101 -141 101 -243c0 -104 -41 -186 -123 -247c-82 -60 -194 -90 -336 -90c-97 0 -184 16 -262 47s-138 76 -180 134c-43 58 -64 127 -64 206h290
c0 -62 19 -107 58 -134c38 -27 95 -41 172 -41c52 0 93 11 124 32c30 21 45 50 45 85z" />
    <glyph glyph-name="R.c2sc" horiz-adv-x="1142" 
d="M570 402h-181v-402h-290v1165h486c148 0 263 -31 346 -91c83 -62 124 -148 124 -259c0 -83 -17 -151 -51 -205c-35 -53 -91 -97 -168 -131l264 -467v-12h-312zM389 635h196c121 0 181 50 181 149c0 98 -63 147 -189 147h-188v-296z" />
    <glyph glyph-name="Q.c2sc" horiz-adv-x="1216" 
d="M1151 559c0 -106 -19 -199 -55 -278c-38 -79 -88 -144 -153 -193l196 -147l-180 -156l-267 205c-27 -4 -55 -6 -83 -6c-162 0 -293 52 -393 156c-101 104 -151 246 -151 425v39c0 115 22 216 67 303s108 155 191 203c83 47 178 71 285 71c105 0 199 -23 282 -70
c82 -47 146 -113 192 -201c45 -86 68 -187 69 -300v-51zM862 605c0 111 -22 196 -67 255s-107 89 -187 89c-83 0 -146 -30 -189 -89s-65 -144 -65 -255v-46c0 -110 22 -195 68 -255c44 -60 107 -90 187 -90c79 0 141 30 185 90c46 60 68 146 68 258v43z" />
    <glyph glyph-name="P.c2sc" horiz-adv-x="1144" 
d="M389 383v-383h-290v1165h497c95 0 179 -17 252 -51c73 -33 130 -81 170 -143c39 -62 59 -132 59 -210c0 -115 -44 -207 -131 -275c-87 -69 -206 -103 -355 -103h-202zM389 616h207c61 0 109 13 142 38c34 25 51 60 51 105c0 51 -17 93 -51 124c-33 31 -80 47 -139 48
h-210v-315z" />
    <glyph glyph-name="O.c2sc" horiz-adv-x="1216" 
d="M1150 559c0 -114 -22 -215 -67 -302s-109 -155 -191 -202c-84 -47 -178 -71 -283 -71c-106 0 -201 23 -283 70c-84 47 -148 113 -193 200c-45 86 -68 185 -69 298v52c0 115 22 216 67 303s108 155 191 203c83 47 178 71 285 71c105 0 199 -23 281 -70
c83 -47 147 -113 192 -201c46 -86 69 -187 70 -300v-51zM860 605c0 111 -22 196 -66 255c-45 59 -107 89 -187 89c-83 0 -145 -30 -189 -89c-42 -59 -64 -144 -64 -255v-46c0 -109 22 -193 66 -254s107 -91 189 -91c77 0 139 30 183 90c46 60 68 146 68 258v43z" />
    <glyph glyph-name="N.c2sc" horiz-adv-x="1238" 
d="M1138 0h-289l-460 726v-726h-290v1165h290l460 -727v727h289v-1165z" />
    <glyph glyph-name="M.c2sc" horiz-adv-x="1543" 
d="M480 1165l291 -785l289 785h383v-1165h-291v236l30 612l-315 -848h-193l-314 845l30 -609v-236h-291v1165h381z" />
    <glyph glyph-name="L.c2sc" horiz-adv-x="954" 
d="M389 232h531v-232h-821v1165h290v-933z" />
    <glyph glyph-name="K.c2sc" horiz-adv-x="1124" 
d="M516 435l-127 -125v-310h-290v1165h290v-486l98 132l281 354h362l-418 -523l429 -642h-342z" />
    <glyph glyph-name="J.c2sc" horiz-adv-x="988" 
d="M599 1165h290v-771c0 -123 -39 -222 -117 -297c-79 -75 -180 -113 -303 -113c-140 0 -248 34 -323 100c-76 68 -114 163 -114 288h290c0 -104 49 -156 147 -156c85 0 129 57 130 171v778z" />
    <glyph glyph-name="I.c2sc" horiz-adv-x="527" 
d="M408 0h-290v1165h290v-1165z" />
    <glyph glyph-name="H.c2sc" horiz-adv-x="1239" 
d="M1139 0h-289v454h-461v-454h-290v1165h290v-478h461v478h289v-1165z" />
    <glyph glyph-name="G.c2sc" horiz-adv-x="1186" 
d="M1115 141c-45 -47 -111 -85 -199 -114c-86 -29 -185 -43 -294 -43c-167 0 -299 49 -397 146c-98 98 -149 233 -152 404v78c0 176 48 315 144 416c96 102 225 153 388 153c153 0 273 -34 358 -101s136 -168 151 -303h-279c-9 57 -31 99 -63 128c-34 29 -86 43 -157 43
c-80 0 -142 -28 -185 -83c-44 -55 -66 -137 -67 -246v-68c0 -114 23 -198 69 -253s116 -82 209 -82c84 0 145 14 183 42v166h-224v205h515v-488z" />
    <glyph glyph-name="F.c2sc" horiz-adv-x="963" 
d="M878 454h-489v-454h-290v1165h832v-234h-542v-244h489v-233z" />
    <glyph glyph-name="dollar.c2sc" horiz-adv-x="1097" 
d="M747 313c0 39 -16 70 -49 93s-88 44 -167 63s-145 39 -199 59c-53 22 -97 46 -132 75s-60 62 -77 99c-17 38 -25 83 -25 135c0 91 35 168 106 231c70 63 164 99 281 110v217h160v-220c119 -15 212 -55 279 -118s101 -143 101 -240h-289c0 43 -17 78 -52 107
c-34 29 -80 43 -138 43c-51 0 -93 -11 -125 -34s-48 -51 -48 -85s17 -62 50 -82c33 -22 89 -42 166 -61c155 -34 267 -81 333 -141c68 -60 101 -141 101 -243c0 -95 -34 -172 -101 -230c-68 -58 -160 -92 -277 -103v-225h-160v225c-132 13 -236 53 -313 120
c-76 68 -114 156 -114 263h290c0 -62 19 -107 58 -134c38 -27 95 -41 172 -41c52 0 93 11 124 32c30 21 45 50 45 85z" />
    <glyph glyph-name="sterling.c2sc" horiz-adv-x="1170" 
d="M878 476h-360c-1 -96 -33 -177 -95 -243h664v-233h-953v233h10c27 7 48 32 62 77c15 44 21 99 19 166h-161v167h156l-2 87c-4 142 32 253 108 332c75 79 179 119 311 119c135 0 241 -36 317 -109c75 -72 113 -174 113 -306h-289c0 122 -46 183 -139 183
c-45 0 -79 -19 -102 -56s-33 -92 -30 -163l4 -87h367v-167z" />
    <glyph glyph-name="yen.c2sc" horiz-adv-x="935" 
d="M467 712l158 453h303l-231 -543h178v-169h-250l-17 -41v-27h267v-167h-267v-218h-289v218h-267v167h267v43l-11 25h-256v169h184l-230 543h304z" />
    <glyph glyph-name="Gamma.c2sc" horiz-adv-x="965" 
d="M936 931h-547v-931h-290v1165h837v-234z" />
    <glyph glyph-name="uni0394.c2sc" horiz-adv-x="1160" 
d="M1161 0h-1162l424 1165h312zM589 847l-11 51l-11 -54l-192 -611h408z" />
    <glyph glyph-name="Theta.c2sc" horiz-adv-x="1216" 
d="M798 455h-373v234h373v-234zM1150 559c0 -114 -22 -215 -67 -302s-109 -155 -191 -202c-84 -47 -178 -71 -283 -71c-106 0 -201 23 -283 70c-84 47 -148 113 -193 200c-45 86 -68 185 -69 298v52c0 115 22 216 67 303s108 155 191 203c83 47 178 71 285 71
c105 0 199 -23 281 -70c83 -47 147 -113 192 -201c46 -86 69 -187 70 -300v-51zM860 605c0 111 -22 196 -66 255c-45 59 -107 89 -187 89c-83 0 -145 -30 -189 -89c-42 -59 -64 -144 -64 -255v-46c0 -109 22 -193 66 -254s107 -91 189 -91c77 0 139 30 183 90
c46 60 68 146 68 258v43z" />
    <glyph glyph-name="Lambda.c2sc" horiz-adv-x="1160" 
d="M302 0h-303l424 1165h312l426 -1165h-304l-268 847l-11 51l-11 -54z" />
    <glyph glyph-name="Xi.c2sc" horiz-adv-x="939" 
d="M864 0h-790v233h790v-233zM783 486h-628v234h628v-234zM864 931h-790v234h790v-234z" />
    <glyph glyph-name="Pi.c2sc" horiz-adv-x="1248" 
d="M1148 0h-290v931h-469v-931h-290v1165h1049v-1165z" />
    <glyph glyph-name="Sigma.c2sc" horiz-adv-x="1090" 
d="M680 592l-239 -359h587v-233h-956v152l308 448l-308 414v151h929v-234h-550l229 -323v-16z" />
    <glyph glyph-name="Phi.c2sc" horiz-adv-x="1495" 
d="M893 1047c167 -10 299 -55 394 -136s143 -189 143 -326c0 -140 -48 -252 -144 -337c-95 -84 -226 -131 -393 -141v-107h-289v107c-167 10 -299 56 -395 139s-144 195 -144 337c0 138 47 247 142 328s227 126 397 136v118h289v-118zM354 583c-3 -155 81 -240 250 -255v498
c-83 -7 -146 -31 -186 -71c-42 -40 -63 -97 -64 -172zM1140 585c0 146 -82 226 -247 241v-498c165 15 247 100 247 257z" />
    <glyph glyph-name="Psi.c2sc" horiz-adv-x="1421" 
d="M855 507c73 12 127 45 160 99s50 139 51 255v304h290v-295c-1 -176 -44 -316 -131 -419s-210 -163 -370 -179v-272h-289v271c-161 16 -284 76 -371 179c-87 104 -130 246 -130 425v290h289v-299c1 -104 17 -186 48 -244c32 -60 87 -97 164 -113v656h289v-658z" />
    <glyph glyph-name="uni03A9.c2sc" horiz-adv-x="1233" 
d="M672 239c67 27 116 69 148 125c31 56 48 132 49 229v61c0 95 -22 168 -65 219c-44 51 -107 76 -189 76c-81 0 -143 -25 -186 -75s-65 -124 -65 -223v-44c0 -101 16 -181 50 -239c32 -60 83 -102 152 -129v-239h-471v235h189c-140 104 -210 247 -210 429v22
c0 90 22 173 68 250c44 76 108 136 192 180c82 43 176 65 281 65c157 0 287 -47 390 -141s154 -216 154 -365v-22c0 -85 -18 -163 -54 -235c-36 -71 -88 -132 -156 -183h195v-235h-472v239z" />
    <glyph glyph-name="uni0402.c2sc" horiz-adv-x="1451" 
d="M373 931h-341v234h978v-234h-347v-193c85 21 170 32 253 32c151 0 269 -36 354 -108c84 -71 126 -173 126 -304c0 -126 -42 -220 -126 -284c-85 -62 -205 -94 -361 -94v220c69 0 119 13 151 38c31 25 47 64 47 115c0 65 -19 111 -57 140c-37 29 -94 43 -170 43
c-71 0 -143 -10 -217 -29v-507h-290v931z" />
    <glyph glyph-name="uni0404.c2sc" horiz-adv-x="1155" 
d="M1105 399c-8 -127 -58 -228 -151 -303c-92 -75 -213 -112 -364 -112c-162 0 -290 50 -382 148c-94 100 -141 236 -144 410v66c0 174 47 313 142 417c94 104 221 156 382 156c151 0 271 -38 362 -113s143 -179 156 -312h-289c-7 128 -83 192 -229 192
c-135 0 -212 -83 -230 -249h330v-233h-332c9 -86 31 -149 68 -190c37 -40 92 -60 166 -60c73 0 128 15 164 44c38 29 58 76 61 139h290z" />
    <glyph glyph-name="uni0409.c2sc" horiz-adv-x="1893" 
d="M1838 399c0 -118 -45 -214 -134 -288s-210 -111 -363 -111h-496v931h-293l-12 -298c-8 -165 -27 -292 -58 -379c-31 -88 -77 -152 -138 -192s-146 -61 -253 -62h-58l-3 237l43 6c47 7 81 24 103 50c23 26 40 66 51 121c11 54 20 141 26 260l18 491h864v-373h207
c153 0 274 -36 362 -108c90 -73 134 -168 134 -285zM1135 559v-326h213c62 0 111 16 147 47c36 32 54 72 54 121c0 47 -17 84 -53 113c-34 29 -82 44 -141 45h-220z" />
    <glyph glyph-name="uni040A.c2sc" horiz-adv-x="1886" 
d="M389 687h449v478h290v-373h207c153 0 273 -36 363 -108c88 -73 133 -168 133 -285c0 -118 -45 -214 -134 -288s-210 -111 -363 -111h-496v454h-449v-454h-290v1165h290v-478zM1128 559v-326h213c59 0 107 15 145 46c36 31 55 71 55 122c0 49 -18 87 -55 115
c-36 28 -83 42 -142 43h-216z" />
    <glyph glyph-name="uni040B.c2sc" horiz-adv-x="1464" 
d="M373 931h-341v234h978v-234h-347v-193c85 21 168 32 248 32c161 0 282 -36 363 -108c80 -73 121 -181 122 -324v-338h-290v330c0 73 -17 126 -52 158c-34 32 -92 48 -174 48c-71 0 -143 -10 -217 -29v-507h-290v931z" />
    <glyph glyph-name="uni040F.c2sc" horiz-adv-x="1248" 
d="M1148 0h-367v-345h-290v345h-392v1165h290v-932h469v932h290v-1165z" />
    <glyph glyph-name="uni0411.c2sc" horiz-adv-x="1157" 
d="M971 932h-582v-169h207c158 0 280 -33 366 -101c87 -66 130 -159 130 -277c0 -119 -44 -213 -130 -281c-88 -70 -209 -104 -365 -104h-498v1165h872v-233zM602 233c134 0 201 51 201 154c0 95 -69 143 -207 143h-207v-297h213z" />
    <glyph glyph-name="uni0414.c2sc" horiz-adv-x="1419" 
d="M127 233c64 68 108 136 132 205c24 68 38 167 42 296l7 431h874v-932h156v-566h-289v333h-727v-333h-289v566h94zM465 233h428v698h-301l-3 -203c-8 -206 -49 -371 -124 -495z" />
    <glyph glyph-name="uni0416.c2sc" horiz-adv-x="1648" 
d="M1063 440h-94v-440h-289v440h-97l-207 -440h-354l317 602l-286 563h336l203 -452h88v452h289v-452h87l202 452h336l-287 -555l318 -610h-354z" />
    <glyph glyph-name="uni0417.c2sc" 
d="M710 823c0 41 -16 72 -48 93c-31 22 -76 33 -134 33c-47 0 -86 -9 -115 -27s-44 -42 -44 -72h-290c0 101 41 182 124 242c83 59 192 89 327 89c148 0 263 -28 346 -83c82 -56 123 -134 123 -233c0 -59 -17 -112 -52 -159s-82 -83 -141 -110c69 -23 122 -59 158 -106
s54 -102 54 -165c0 -106 -44 -189 -130 -250c-88 -61 -207 -91 -358 -91c-141 0 -254 31 -340 94c-85 63 -128 148 -128 256h290c1 -37 18 -66 49 -88c31 -21 76 -32 133 -32c63 0 112 12 145 36c33 25 50 59 50 104c0 94 -65 142 -196 144h-147v193h157
c111 3 167 47 167 132z" />
    <glyph glyph-name="uni0418.c2sc" horiz-adv-x="1242" 
d="M852 1165h290v-1165h-290v730l-463 -730h-290v1165h290v-730z" />
    <glyph glyph-name="uni041A.c2sc" horiz-adv-x="1129" 
d="M502 440h-113v-440h-290v1165h290v-452h109l241 452h332l-337 -567l372 -598h-353z" />
    <glyph glyph-name="uni041B.c2sc" horiz-adv-x="1235" 
d="M1135 1165v-1165h-290v931h-293l-12 -294c-9 -169 -28 -296 -59 -383s-76 -150 -137 -190c-60 -41 -143 -62 -249 -64h-62l-3 237l29 4c52 7 90 23 113 48s41 63 53 116s21 134 26 244l20 516h864z" />
    <glyph glyph-name="uni0423.c2sc" horiz-adv-x="1134" 
d="M602 610l220 555h307l-412 -900l-49 -94c-67 -119 -163 -182 -287 -190l-60 -1l-79 3l-2 233c16 -3 43 -4 80 -4c33 0 62 7 85 20s44 37 61 70l-439 863h314z" />
    <glyph glyph-name="uni0426.c2sc" horiz-adv-x="1424" 
d="M1148 233h211l-20 -566h-269v333h-971v1165h290v-932h469v932h290v-932z" />
    <glyph glyph-name="uni0427.c2sc" horiz-adv-x="1193" 
d="M1093 0h-289v411c-80 -21 -153 -31 -218 -31c-175 0 -304 35 -388 106c-83 71 -126 178 -128 323v356h290v-345c0 -74 17 -127 52 -159s93 -48 174 -48c69 0 142 10 218 29v523h289v-1165z" />
    <glyph glyph-name="uni0428.c2sc" horiz-adv-x="1711" 
d="M1611 0h-1512v1165h290v-932h321v932h290v-932h321v932h290v-1165z" />
    <glyph glyph-name="uni0429.c2sc" horiz-adv-x="1887" 
d="M1611 233h211l-20 -566h-269v333h-1434v1165h290v-932h321v932h290v-932h321v932h290v-932z" />
    <glyph glyph-name="uni042A.c2sc" horiz-adv-x="1431" 
d="M1376 399c0 -118 -45 -214 -134 -288s-210 -111 -363 -111h-496v931h-373v234h663v-373h207c153 0 274 -36 362 -108c90 -73 134 -168 134 -285zM886 233c62 0 111 16 147 47c36 32 54 72 54 121c0 47 -17 84 -53 113c-34 29 -82 44 -141 45h-220v-326h213z" />
    <glyph glyph-name="uni042B.c2sc" horiz-adv-x="1595" 
d="M1092 399c0 -118 -45 -214 -134 -288s-210 -111 -363 -111h-496v1165h290v-373h207c153 0 274 -36 362 -108c90 -73 134 -168 134 -285zM602 233c62 0 111 16 147 47c36 32 54 72 54 121c0 47 -17 84 -53 113c-34 29 -82 44 -141 45h-220v-326h213zM1495 0h-290v1165h290
v-1165z" />
    <glyph glyph-name="uni042C.c2sc" horiz-adv-x="1147" 
d="M1092 399c0 -118 -45 -214 -134 -288s-210 -111 -363 -111h-496v1165h290v-373h207c153 0 274 -36 362 -108c90 -73 134 -168 134 -285zM602 233c62 0 111 16 147 47c36 32 54 72 54 121c0 47 -17 84 -53 113c-34 29 -82 44 -141 45h-220v-326h213z" />
    <glyph glyph-name="uni042D.c2sc" horiz-adv-x="1155" 
d="M339 399c3 -63 23 -110 61 -139c36 -29 91 -44 164 -44s128 20 165 60c37 41 59 104 68 190h-331v233h330c-18 166 -95 249 -230 249c-71 0 -126 -16 -164 -48c-40 -33 -61 -81 -64 -144h-289c13 134 65 238 157 313c90 75 211 112 360 112c161 0 289 -52 384 -156
c94 -104 141 -245 141 -422v-48c0 -178 -47 -318 -140 -419s-222 -152 -387 -152c-150 0 -271 37 -364 112c-92 75 -142 176 -150 303h289z" />
    <glyph glyph-name="uni042E.c2sc" horiz-adv-x="1700" 
d="M1635 559c0 -114 -22 -215 -67 -302s-108 -155 -192 -202c-82 -47 -177 -71 -283 -71c-145 0 -266 42 -363 126s-156 199 -176 346h-165v-456h-290v1165h290v-476h163c16 151 73 270 170 359s220 133 369 133c163 0 295 -53 395 -158c99 -105 149 -247 149 -425v-39z
M1345 605c0 111 -22 196 -67 255c-44 59 -106 89 -187 89c-82 0 -145 -30 -188 -89s-65 -144 -65 -255v-46c0 -110 22 -195 68 -255c44 -60 107 -90 187 -90c78 0 139 30 185 90c44 60 67 146 67 258v43z" />
    <glyph glyph-name="uni042F.c2sc" horiz-adv-x="1155" 
d="M54 0l266 523c-130 61 -195 157 -195 288c0 109 42 196 127 259c84 63 198 95 343 95h460v-1165h-290v411h-191l-207 -411h-313zM413 789c0 -45 15 -80 44 -107c29 -26 73 -39 132 -39h176v288h-176c-54 0 -97 -13 -129 -39c-31 -26 -47 -60 -47 -103z" />
    <glyph glyph-name="uni0492.c2sc" horiz-adv-x="1079" 
d="M709 465h-205v-465h-290v465h-204v183h204v517h836v-234h-546v-283h205v-183z" />
    <glyph glyph-name="uni0496.c2sc" horiz-adv-x="1766" 
d="M1307 610l197 -378h218v-565h-239v333h-212l-208 440h-94v-440h-289v440h-97l-207 -440h-354l317 602l-286 563h336l203 -452h88v452h289v-452h87l202 452h336z" />
    <glyph glyph-name="uni049A.c2sc" horiz-adv-x="1215" 
d="M734 598l227 -366h229v-565h-239v333h-198l-251 440h-113v-440h-290v1165h290v-452h109l241 452h332z" />
    <glyph glyph-name="uni049C.c2sc" horiz-adv-x="1302" 
d="M389 713h64v218h167v-218h51l241 452h332l-337 -567l372 -598h-353l-251 440h-55v-205h-167v205h-64v-440h-290v1165h290v-452z" />
    <glyph glyph-name="uni04A0.c2sc" horiz-adv-x="1443" 
d="M810 440h-113v-440h-290v931h-375v234h665v-452h108l242 452h332l-338 -567l372 -598h-352z" />
    <glyph glyph-name="uni04A8.c2sc" horiz-adv-x="1568" 
d="M1493 -13c-157 0 -296 18 -418 54c-101 -41 -210 -62 -327 -62c-211 0 -377 53 -500 161c-123 106 -184 255 -184 446v56c0 107 22 204 65 288c43 86 104 151 182 197s167 69 267 69v-243c-69 0 -123 -28 -163 -85c-40 -56 -61 -133 -62 -231v-50
c0 -117 35 -207 103 -271c70 -63 169 -95 300 -95c-107 107 -162 245 -163 414v48c0 155 39 279 117 372s184 140 317 140c139 0 249 -44 329 -133c79 -89 120 -210 121 -364v-88c0 -149 -50 -279 -149 -391c44 -5 99 -7 165 -7v-225zM867 641c0 -85 14 -154 42 -209
s69 -99 123 -132c101 71 153 177 156 316v57c0 95 -12 165 -36 211c-25 46 -65 69 -120 69c-51 0 -91 -22 -120 -66c-30 -44 -45 -111 -45 -201v-45z" />
    <glyph glyph-name="uni04B0.c2sc" horiz-adv-x="1104" 
d="M550 670l239 495h314l-411 -759v-406h-290v418l-403 747h312zM896 340h-699v183h699v-183z" />
    <glyph glyph-name="uni04B2.c2sc" horiz-adv-x="1243" 
d="M548 789l206 376h334l-358 -578l233 -355h216v-565h-239v333h-166l-222 382l-215 -382h-334l368 587l-358 578h331z" />
    <glyph glyph-name="uni04B4.c2sc" horiz-adv-x="1731" 
d="M1423 233h212l-20 -566h-268v333h-971v931h-344v234h956v-234h-323v-698h469v932h289v-932z" />
    <glyph glyph-name="uni04B8.c2sc" horiz-adv-x="1193" 
d="M1093 0h-289v411c-47 -11 -91 -20 -132 -25v-211h-167v208c-147 10 -256 50 -326 121c-70 70 -106 170 -109 301v360h290v-343c0 -65 12 -112 36 -144c24 -30 60 -50 109 -59v251h167v-252c44 5 88 13 132 24v523h289v-1165z" />
    </font>
</defs>
</svg>
